The Wombats - Beautiful People Will Ruin Your Life (2018) [Official Digital Download 24/48]

Posted By: delpotro
The Wombats - Beautiful People Will Ruin Your Life (2018) [Official Digital Download 24/48]

The Wombats - Beautiful People Will Ruin Your Life (2018)
FLAC (tracks) 24-bit/48 kHz | Front Cover | Time - 37:41 minutes | 490 MB
Indie Rock | Label: Warner Music, Official Digital Download

The Wombats’ gift of making indie pop sound fresh and effortless continues unabated on its fourth album. Guitars shine like mirror balls, rhythms invite fresh dance-floor poses, and sky-high vocal melodies inspire the kind of sing-alongs that ensure you extra space on the bus. Their penchant for clever wordplay might cause head scratches—cue “Lemon to a Knife Fight” and “Out of My Head” for prime examples—but make perfect sense in The Wombats’ world.

Tracklist:
1. Cheetah Tongue (03:39)
2. Lemon to a Knife Fight (03:25)
3. Turn (03:27)
4. Black Flamingo (03:20)
5. White Eyes (04:13)
6. Lethal Combination (02:38)
7. Out of My Head (03:02)
8. I Only Wear Black (03:11)
9. Ice Cream (03:44)
10. Dip You in Honey (03:08)
11. I Don't Know Why I Like You but I Do (03:49)

foobar2000 1.4.1 / Dynamic Range Meter 1.1.1
log date: 2021-01-13 15:22:36

––––––––––––––––––––––––––––––––––––––––
Analyzed: The Wombats / Beautiful People Will Ruin Your Life
––––––––––––––––––––––––––––––––––––––––

DR Peak RMS Duration Track
––––––––––––––––––––––––––––––––––––––––
DR4 -0.01 dB -6.24 dB 3:39 01-Cheetah Tongue
DR4 -0.01 dB -5.15 dB 3:26 02-Lemon to a Knife Fight
DR3 -0.01 dB -5.10 dB 3:28 03-Turn
DR4 -0.01 dB -5.38 dB 3:21 04-Black Flamingo
DR5 -0.01 dB -6.58 dB 4:13 05-White Eyes
DR4 -0.01 dB -5.07 dB 2:39 06-Lethal Combination
DR4 -0.01 dB -6.40 dB 3:02 07-Out of My Head
DR5 -0.01 dB -7.76 dB 3:11 08-I Only Wear Black
DR5 -0.01 dB -6.74 dB 3:44 09-Ice Cream
DR7 -0.01 dB -8.86 dB 3:08 10-Dip You in Honey
DR5 -0.01 dB -7.07 dB 3:50 11-I Don't Know Why I Like You but I Do
––––––––––––––––––––––––––––––––––––––––

Number of tracks: 11
Official DR value: DR5

Samplerate: 48000 Hz
Channels: 2
Bits per sample: 24
Bitrate: 1787 kbps
Codec: FLAC
================================================================================


Thanks to the Original customer!