Tim Buckley - Bear's Sonic Journals: Merry-Go-Round At The Carousel (2021) [Official Digital Download 24/96]

Posted By: delpotro
Tim Buckley - Bear's Sonic Journals: Merry-Go-Round At The Carousel (2021) [Official Digital Download 24/96]

Tim Buckley - Bear's Sonic Journals: Merry-Go-Round At The Carousel (2021)
FLAC (tracks) 24-bit/96 kHz | Front Cover | Time - 86:31 minutes | 1,67 GB
Folk Rock, Jazz Rock | Label: Owsley Stanley Foundation, Official Digital Download

This is the most important Tim Buckley release since Dream Letter, featuring a singular performance with a jazz-rock lineup that calls to mind Van Morrison’s Astral Weeks. Buckley, father of Jeff Buckley, made his mark with his Southern California folk-rock sound and four-octave vocal range. But this rich weave of accessible, warm, improvisational music reveals Buckley in a light never before captured on tape, including two newly discovered songs (“Blues, Love” and “The Lonely Life”), early drafts of Buckley classics, and a stunning cover of Fred Neil’s “Merry-Go-Round.” Recorded by the Grateful Dead’s legendary soundman Owsley “Bear” Stanley, the infamous LSD chemist, this is one of the treasures of his Sonic Journal archive. Buckley’s performance is incredible and Bear’s thumbprint on the sonics is part of the magic!

Tracklist:
01. Buzzin' Fly (Live at The Carousel Ballroom, San Francisco, CA, 6/15/1968)
02. I Don't Need it to Rain (Live at The Carousel Ballroom, San Francisco, CA, 6/15/1968)
03. Blues, Love (Live at The Carousel Ballroom, San Francisco, CA, 6/15/1968)
04. The Father Song (Live at The Carousel Ballroom, San Francisco, CA, 6/15/1968)
05. The Lonely Life (Live at The Carousel Ballroom, San Francisco, CA, 6/15/1968)
06. Happy Time (Live at The Carousel Ballroom, San Francisco, CA, 6/15/1968)
07. Hi Lily, Hi Lo (Live at The Carousel Ballroom, San Francisco, CA, 6/15/1968)
08. Green Rocky Road (Live at The Carousel Ballroom, San Francisco, CA, 6/16/1968)
09. Happy Time (Live at The Carousel Ballroom, San Francisco, CA, 6/16/1968)
10. Wayfaring Stranger (Live at The Carousel Ballroom, San Francisco, CA, 6/16/1968)
11. Buzzin' Fly (Live at The Carousel Ballroom, San Francisco, CA, 6/16/1968)
12. Strange Feelin' (Live at The Carousel Ballroom, San Francisco, CA, 6/16/1968)
13. Love from Room 109 at the Islander (On Pacific Coast Highway) (Live at The Carousel Ballroom, San Francisco, CA, 6/16/1968)
14. Sing a Song for You (Live at The Carousel Ballroom, San Francisco, CA, 6/16/1968)
15. Merry-Go-Round> Strange Feelin' (Reprise) (Live at The Carousel Ballroom, San Francisco, CA, 6/16/1968)

foobar2000 1.4.1 / Dynamic Range Meter 1.1.1
log date: 2021-06-04 07:23:47

––––––––––––––––––––––––––––––––––––––––
Analyzed: Tim Buckley / Bear's Sonic Journals: Merry-Go-Round At The Carousel
––––––––––––––––––––––––––––––––––––––––

DR Peak RMS Duration Track
––––––––––––––––––––––––––––––––––––––––
DR12 -2.13 dB -21.16 dB 6:54 01-Buzzin' Fly (Live at The Carousel Ballroom, San Francisco, CA, 6/15/1968)
DR12 -0.18 dB -21.62 dB 9:28 02-I Don't Need it to Rain (Live at The Carousel Ballroom, San Francisco, CA, 6/15/1968)
DR11 -0.40 dB -20.63 dB 10:51 03-Blues, Love (Live at The Carousel Ballroom, San Francisco, CA, 6/15/1968)
DR13 -5.43 dB -26.65 dB 2:23 04-The Father Song (Live at The Carousel Ballroom, San Francisco, CA, 6/15/1968)
DR11 -12.62 dB -29.87 dB 1:02 05-The Lonely Life (Live at The Carousel Ballroom, San Francisco, CA, 6/15/1968)
DR10 -4.34 dB -20.60 dB 3:21 06-Happy Time (Live at The Carousel Ballroom, San Francisco, CA, 6/15/1968)
DR14 -10.02 dB -30.99 dB 4:18 07-Hi Lily, Hi Lo (Live at The Carousel Ballroom, San Francisco, CA, 6/15/1968)
DR13 -2.35 dB -22.64 dB 6:46 08-Green Rocky Road (Live at The Carousel Ballroom, San Francisco, CA, 6/16/1968)
DR12 -2.81 dB -20.85 dB 3:12 09-Happy Time (Live at The Carousel Ballroom, San Francisco, CA, 6/16/1968)
DR12 -0.60 dB -19.71 dB 9:41 10-Wayfaring Stranger (Live at The Carousel Ballroom, San Francisco, CA, 6/16/1968)
DR12 -2.53 dB -21.06 dB 5:08 11-Buzzin' Fly (Live at The Carousel Ballroom, San Francisco, CA, 6/16/1968)
DR12 -1.15 dB -21.43 dB 7:34 12-Strange Feelin' (Live at The Carousel Ballroom, San Francisco, CA, 6/16/1968)
DR13 -13.52 dB -30.49 dB 2:23 13-Love from Room 109 at the Islander (On Pacific Coast Highway) (Live at The Carousel Ballroom, San Francisco, CA, 6/16/1968)
DR13 -9.35 dB -29.72 dB 2:33 14-Sing a Song for You (Live at The Carousel Ballroom, San Francisco, CA, 6/16/1968)
DR14 -2.53 dB -23.77 dB 10:58 15-Merry-Go-Round> Strange Feelin' (Reprise) (Live at The Carousel Ballroom, San Francisco, CA, 6/16/1968)
––––––––––––––––––––––––––––––––––––––––

Number of tracks: 15
Official DR value: DR12

Samplerate: 96000 Hz
Channels: 2
Bits per sample: 24
Bitrate: 2685 kbps
Codec: FLAC
================================================================================


Thanks to the Original customer!