Van Dyke Parks & Verónica Valerio - Van Dyke Parks orchestrates Verónica Valerio: Only in America (EP) (2021) [24/48]

Posted By: delpotro
Van Dyke Parks & Verónica Valerio - Van Dyke Parks orchestrates Verónica Valerio: Only in America (EP) (2021) [24/48]

Van Dyke Parks & Verónica Valerio - Van Dyke Parks orchestrates Verónica Valerio: Only in America (EP) (2021)
FLAC (tracks) 24-bit/48 kHz | Front Cover | Time - 13:02 minutes | MB
Vocal Jazz, Latin Jazz | Label: Modern Recordings, Official Digital Download

A collaboration album between recording artist and arranger Van Dyke Parks and harpist and poet Verónica Valerio.

This record is a Chamber-music Suite of Songs of the Yucatan, featuring the poetry of Verónica Valerio and orchestrated by Van Dyke Parks. Starting with a new arrangement of Agustin Lara’s classic "Veracruz," the album transports us to “a place of pyramids and pre-Collumbian history” following that place and time with three originals by Verónica Valerio called "Cielito Lindo," "The Flight of the Guacamaya," and "Camino a casa."

Tracklist:
1. Veracruz (02:22)
2. Cielito Lindo (03:29)
3. The Flight of the Guacamaya (03:57)
4. Camino a Casa (03:12)

foobar2000 1.4.1 / Dynamic Range Meter 1.1.1
log date: 2021-06-11 11:55:55

––––––––––––––––––––––––––––––––––––––––
Analyzed: Van Dyke Parks & Verónica Valerio / Van Dyke Parks orchestrates Verónica Valerio: Only in America
––––––––––––––––––––––––––––––––––––––––

DR Peak RMS Duration Track
––––––––––––––––––––––––––––––––––––––––
DR9 -0.12 dB -10.86 dB 2:23 01-Veracruz
DR8 -0.12 dB -10.77 dB 3:29 02-Cielito Lindo
DR9 -0.12 dB -11.61 dB 3:57 03-The Flight of the Guacamaya
DR9 -0.12 dB -11.01 dB 3:13 04-Camino a Casa
––––––––––––––––––––––––––––––––––––––––

Number of tracks: 4
Official DR value: DR9

Samplerate: 48000 Hz
Channels: 2
Bits per sample: 24
Bitrate: 1640 kbps
Codec: FLAC
================================================================================


Thanks to the Original customer!