Willie Dunn - Creation Never Sleeps, Creation Never Dies: The Willie Dunn Anthology (2021) [Official Digital Download]

Posted By: delpotro
Willie Dunn - Creation Never Sleeps, Creation Never Dies: The Willie Dunn Anthology (2021) [Official Digital Download]

Willie Dunn - Creation Never Sleeps, Creation Never Dies: The Willie Dunn Anthology (2021)
FLAC (tracks) 24-bit/44,1 kHz | Front Cover | Time - 77:53 minutes | 747 MB
Folk, Country | Label: Light In The Attic Records, Official Digital Download

How did you first experience the poetry, music, and film of Willie Dunn? In a Montreal coffeehouse during the mid-1960s? On a CBC Indian Magazine broadcast with host Johnny Yesno? At a Toronto record store or Native Friendship Centre at the turn of the 1970s? Waiting outside of the Mohawk Nation Longhouse? Maybe in your parent’s record collection on the Rez? A White Roots of Peace gathering? Pow wow? The Mariposa Folk Festival? Or was it that Save James Bay Benefit back in ‘73? On a good friend’s stereo? Sitting around a crackling campfire? How about an old NFB film reel or VHS tape in high school? Or while attending Manitou College? A German concert hall in the 1980s? Maybe a direct action protest on the colonial streets of Canada? Busking in Ottawa during the 1990s? College radio? At Willie’s celebration of life service in 2013 alongside Alanis Obomsawin and Willy Mitchell? LITA’s Grammy-nominated Native North America (Vol. 1) compilation or the very anthology you hold in your hands?

There should be no judgement for coming to things when you do. All that’s important is remaining open to life-changing messages such as these…

Willie Dunn shared truth through song and celluloid. His original composition, “I Pity the Country,” is an unparalleled statement on the greed and hate created by humankind, recorded in 1971 and still unfortunately needed today. “It’s like the reason you’re supposed to make music,” said Kurt Vile about the song to MOJO Magazine in 2015. With “Charlie,” Willie was the first to deliver the devastating story of Chanie Wenjack and the Canadian residential school system to the music community, nearly 50 years before the much-celebrated Secret Path, yet ignored outside of Indian Country and the folk festival circuit. Dunn’s film technique, featured in 1968’s The Ballad of Crowfoot (NFB), predates the “Ken Burns effect” to great effect. Are you catching the drift? Willie Dunn was not only a trailblazing leader in his time, but well ahead of the curve, simply without the PR push and big money backing of major label players.

“He was our Leonard Cohen,” said singer-songwriter Eric Landry about his musical hero. The only difference is that Willie refused to play the Hollywood showbiz game. In talent, he is Cohen, Dylan, and Cash rolled into one and along with Buffy Sainte-Marie, Floyd Red Crow Westerman, and A. Paul Ortega, brought a new set of perspectives and realities to the folk music tradition. Willie spoke directly to his people and Mother Earth through his creations, not only from experience, but by examining his roots and connecting with the world in which he lived. We are humbled to help honour Willie Dunn. May he never be forgotten… PEACE

Tracklist:
1. The Ballad of Crowfoot (09:54)
2. Peruvian Dream (Part 1) (02:44)
3. Charlie (03:07)
4. Broker (02:52)
5. I Pity the Country (02:56)
6. Crazy Horse (03:22)
7. Louis Riel (03:01)
8. School Days (01:41)
9. The Carver (03:43)
10. O Canada! (02:10)
11. Down by the Stream (Starlight Maiden) (01:39)
12. Rattling Along the Freight Train (To the Spirit Land) (01:55)
13. Pontiac (02:50)
14. The Pacific (09:49)
15. Nova Scotia (02:53)
16. The Dreamer (02:47)
17. Sonnet 33 and 55 / Friendship Dance (02:22)
18. Wounded Lake (03:37)
19. Métis Red River Song (03:54)
20. Son of the Sun (03:46)
21. The Lovenant Chain (03:10)
22. Bear and Fish (03:28)

foobar2000 1.4.1 / Dynamic Range Meter 1.1.1
log date: 2021-05-13 11:55:15

––––––––––––––––––––––––––––––––––––––––
Analyzed: Willie Dunn / Creation Never Sleeps, Creation Never Dies: The Willie Dunn Anthology
––––––––––––––––––––––––––––––––––––––––

DR Peak RMS Duration Track
––––––––––––––––––––––––––––––––––––––––
DR11 -0.50 dB -14.25 dB 9:55 01-The Ballad of Crowfoot
DR14 -0.50 dB -16.78 dB 2:45 02-Peruvian Dream (Part 1)
DR12 -2.07 dB -17.79 dB 3:08 03-Charlie
DR12 -0.52 dB -15.44 dB 2:52 04-Broker
DR13 -1.36 dB -17.36 dB 2:57 05-I Pity The Country
DR11 -0.50 dB -13.61 dB 3:23 06-Crazy Horse
DR10 -0.50 dB -11.95 dB 3:02 07-Louis Riel
DR11 -0.50 dB -13.15 dB 1:42 08-School Days
DR11 -0.50 dB -13.05 dB 3:43 09-The Carver
DR13 -1.37 dB -18.19 dB 2:11 10-O Canada!
DR13 -1.86 dB -17.54 dB 1:40 11-Down by the Stream (Starlight Maiden)
DR11 -1.44 dB -14.45 dB 1:55 12-Rattling Along the Freight Train (To the Spirit Land)
DR14 -0.50 dB -18.90 dB 2:51 13-Pontiac
DR11 -0.50 dB -14.25 dB 9:50 14-The Pacific
DR13 -0.50 dB -15.00 dB 2:53 15-Nova Scotia
DR14 -0.50 dB -18.32 dB 2:47 16-The Dreamer
DR13 -1.97 dB -18.58 dB 2:23 17-Sonnet 33 and 55 - Friendship Dance
DR17 -0.76 dB -22.29 dB 3:37 18-Wounded Lake
DR13 -0.50 dB -17.57 dB 3:54 19-Métis Red River Song
DR15 -0.50 dB -18.20 dB 3:47 20-Son of the Sun
DR14 -0.50 dB -19.58 dB 3:11 21-The Lovenant Chain
DR11 -5.07 dB -20.39 dB 3:29 22-Bear and Fish
––––––––––––––––––––––––––––––––––––––––

Number of tracks: 22
Official DR value: DR13

Samplerate: 44100 Hz
Channels: 2
Bits per sample: 24
Bitrate: 1311 kbps
Codec: FLAC
================================================================================


Thanks to the Original customer!