Tags
Language
Tags
February 2024
Su Mo Tu We Th Fr Sa
28 29 30 31 1 2 3
4 5 6 7 8 9 10
11 12 13 14 15 16 17
18 19 20 21 22 23 24
25 26 27 28 29 1 2
Attention❗ To save your time, in order to download anything on this site, you must be registered 👉 HERE. If you do not have a registration yet, it is better to do it right away. ✌

( • )( • ) ( ͡⚆ ͜ʖ ͡⚆ ) (‿ˠ‿)
SpicyMags.xyz

Yawning Man - Historical Graffiti (2016) [Official Digital Download 24/44-48]

Posted By: delpotro
Yawning Man - Historical Graffiti (2016) [Official Digital Download 24/44-48]

Yawning Man - Historical Graffiti (2016)
FLAC (tracks) 24-bit/44,1-48 kHz | Front Cover | Time - 32:52 minutes | 385 MB
Desert Rock, Psychedelic Rock, Stoner Rock | Label: Lay Bare Recordings, Official Digital Download

Yawning Man are an enigma. The mostly instrumental, part-surf guitar, part-psych, part-desert rock outfit have been in existence for 30 years and are spoken of in hushed tones, for they are credited with helping corrupt the young minds that went on to form Kyuss and Queens of the Stone Age. And yet if you didn’t live in Palm Desert, California or repeatedly watch Inside Out, a superb skateboard movie made by Gullwing Trucks in 1988, then you probably didn’t hear their music until at least five years into the 21st century.

This album is only the band’s third full-length, if you discount the digital release of the Birth of Sol demo collection in 2009 (which in itself is noteworthy because of the inclusion of ‘Catamaran’, which was covered by Kyuss on As the Circus Leaves Town, and ‘Fires of Papa’s Chili’ – both songs were on Inside Out).

Sure, the band’s members have released other music through off-shoots and side projects, but a Yawning Man album – this is their first for six years – is rare enough to be savoured, like the sighting of a whale on a boat trip.

The sub-title, The Ion Studio Sessions, comes from the Buenos Aires studio where they recorded it in a single evening while on tour in the Argentinean capital in 2015. It is as laconic, shadowy and spontaneous sounding as Nomadic Pursuits, their previous album, but the band has clearly evolved, with the addition of guest musicians and with a wider palette of inspiration.

Tracklist:
1. The Wind Cries Edalyn (08:32)
2. Her Phantom Finger of Copenhagen (06:59)
3. Naomi Crayola (03:06)
4. The Secret Language of Elephants (06:28)
5. Historical Graffiti (07:49)

foobar2000 1.4.1 / Dynamic Range Meter 1.1.1
log date: 2020-09-01 17:05:39

––––––––––––––––––––––––––––––––––––––––
Analyzed: Yawning Man / Historical Graffiti
––––––––––––––––––––––––––––––––––––––––

DR Peak RMS Duration Track
––––––––––––––––––––––––––––––––––––––––
DR10 -0.82 dB -12.37 dB 8:32 01-The Wind Cries Edalyn
DR11 -0.61 dB -12.85 dB 3:06 03-Naomi Crayola
DR9 -0.70 dB -10.95 dB 6:28 04-The Secret Language of Elephants
DR9 -0.70 dB -10.70 dB 7:49 05-Historical Graffiti
––––––––––––––––––––––––––––––––––––––––

Number of tracks: 4
Official DR value: DR10

Samplerate: 48000 Hz
Channels: 2
Bits per sample: 24
Bitrate: 1649 kbps
Codec: FLAC
================================================================================

foobar2000 1.4.1 / Dynamic Range Meter 1.1.1
log date: 2020-09-01 17:05:27

––––––––––––––––––––––––––––––––––––––––
Statistics for: 02-Her Phantom Finger of Copenhagen
Number of samples: 18457909
Duration: 6:59
––––––––––––––––––––––––––––––––––––––––

Left Right

Peak Value: -0.15 dB –- -0.11 dB
Avg RMS: -12.23 dB –- -12.25 dB
DR channel: 10.66 dB –- 10.58 dB
––––––––––––––––––––––––––––––––––––––––

Official DR Value: DR11

Samplerate: 44100 Hz
Channels: 2
Bits per sample: 24
Bitrate: 1413 kbps
Codec: FLAC
================================================================================

Thanks to the Original customer!