Yves Tumor - Heaven to a Tortured Mind (2020) [Official Digital Download]

Posted By: delpotro
Yves Tumor - Heaven to a Tortured Mind (2020) [Official Digital Download]

Yves Tumor - Heaven to a Tortured Mind (2020)
FLAC (tracks) 24-bit/44,1 kHz | Front Cover | Time - 36:29 minutes | 421 MB
Art Pop, Neo-psychedelia, Electronic, Rock, Soul | Label: Warp Records, Official Digital Download

Safe in the Hands of Love marked the vanguard arrival of Yves Tumor. Unclassified and unannounced, the release received widespread acclaim and cemented itself as a landmark in the hallowed Warp catalog. The experimentalist voiced a new generation, creating a surreal pop stratosphere for outsiders and the masses alike. Heaven To A Tortured Mind is the next step in that searing trajectory. A mindfully crafted studio album, gracefully blending genre into alternative bliss. Effortless and inspired, Heaven To A Tortured Mind is an album for lovers, losers and the unconcerned.

Few projects at the forefront of contemporary art truly push visceral sonic boundaries in the way that Yves Tumor does. With an arc that impartially sits between psych-rock and modern pop, comparisons only serve as limitations intended to define that which cannot be. Yves Tumor melds restraint and chaos; diluting reality by giving meaning to the abstract and allowing for dissonance to be seen and heard as harmony.

Heaven To A Tortured Mind - written and composed by Yves Tumor and produced by Yves Tumor and Justin Raisen (Sky Ferreira, Ariel Pink, Charli XCX)- marks the fourth official full-length release from Yves Tumor. Piercing through contradiction, redefining expression through song, and catapulting Yves Tumor into the next phase of illusion and evolution. Heaven To A Tortured Mind finds its place in music history as a collection of anthems for a generation.

Tracklist:
1. Gospel For a New Century (03:18)
2. Medicine Burn (04:04)
3. Identity Trade (01:59)
4. Kerosene! (05:05)
5. Hasdallen Lights (02:07)
6. Romanticist (01:46)
7. Dream Palette (02:55)
8. Super Stars (03:05)
9. Folie Imposée (03:05)
10. Strawberry Privilege (03:52)
11. Asteroid Blues (02:02)
12. A Greater Love (03:04)

foobar2000 1.4.1 / Dynamic Range Meter 1.1.1
log date: 2020-06-03 16:06:17

––––––––––––––––––––––––––––––––––––––––
Analyzed: Yves Tumor / Heaven To A Tortured Mind
––––––––––––––––––––––––––––––––––––––––

DR Peak RMS Duration Track
––––––––––––––––––––––––––––––––––––––––
DR6 -0.09 dB -7.97 dB 3:19 01-Gospel For A New Century
DR6 -0.07 dB -7.38 dB 4:05 02-Medicine Burn
DR6 -0.09 dB -7.26 dB 2:00 03-Identity Trade
DR6 -0.09 dB -8.76 dB 5:06 04-Kerosene!
DR6 -0.09 dB -7.88 dB 2:08 05-Hasdallen Lights
DR7 -0.09 dB -8.66 dB 1:46 06-Romanticist
DR5 -0.06 dB -6.37 dB 2:55 07-Dream Palette
DR6 -0.09 dB -7.40 dB 3:06 08-Super Stars
DR5 0.00 dB -6.55 dB 3:06 09-Folie Imposée
DR6 -0.07 dB -7.52 dB 3:53 10-Strawberry Privilege
DR5 -0.58 dB -8.09 dB 2:03 11-Asteroid Blues
DR6 -0.09 dB -7.84 dB 3:05 12-A Greater Love
––––––––––––––––––––––––––––––––––––––––

Number of tracks: 12
Official DR value: DR6

Samplerate: 44100 Hz
Channels: 2
Bits per sample: 24
Bitrate: 1477 kbps
Codec: FLAC
================================================================================


Thanks to the Original customer!