Tags
Language
Tags

Andrew Lloyd Webber - Cats: Highlights From The Motion Picture Soundtrack (2019) [Official Digital Download]

Posted By: Pisulik
Andrew Lloyd Webber - Cats: Highlights From The Motion Picture Soundtrack (2019) [Official Digital Download]

Andrew Lloyd Webber - Cats: Highlights From The Motion Picture Soundtrack (2019)
FLAC (tracks) 24-bit/44.1 kHz | Time - 59:06 minutes | 652 MB
Studio Master, Official Digital Download | Artwork: Front cover

Jennifer Hudson was driving when she found out that she’d be playing Grizabella in director Tom Hooper’s film adaptation of Andrew Lloyd Webber’s classic stage musical Cats, which premiered on Broadway in 1982. “I had to pull over in a parking lot when I got the call,” she tells Apple Music. “And I was like, yes! But then I said, ‘Oh my god. That means I have to sing “Memory.”’” Hudson, of course, rises to the occasion: Her stunning vocal range breathes new life into the tousled Jellicle cat on the show’s best-known song. She joins an all-star cast of performers vying to ascend to the Heaviside layer through song and dance. Jason Derulo flexes his theatrical muscle over old-school funk and slap bass on “The Rum Tum Tugger”, while on “Macavity”, Taylor Swift (cast as Bombalurina) tells the tale of the nefarious feline (played by Idris Elba) over seductive burlesque. James Corden brings his everyman charm to the toe-tapping “Bustopher Jones: The Cat About Town”. On “The Addressing of Cats”, Dame Judi Dench gets to sing the grand finale as Old Deuteronomy. (Almost 40 years ago, Dench was forced to give up the role of Grizabella due to injury during rehearsals for the original West End production.) The movie soundtrack, like the play, introduces the competing cats one by one, updating the original songs’ ’80s bombast with a timeless orchestral flair.

Tracklist:

01. Andrew Lloyd Webber - Overture (1:39)
02. Cast Of The Motion Picture "Cats" - Jellicle Songs For Jellicle Cats (4:49)
03. Rebel Wilson; Robbie Fairchild - The Old Gumbie Cat (4:33)
04. Jason Derulo - The Rum Tum Tugger (3:48)
05. James Corden - Bustopher Jones: The Cat About Town (3:43)
06. Danny Collins; Naoimh Morgan; Francesca Hayward - Mungojerrie And Rumpleteazer (3:54)
07. Robbie Fairchild - Old Deuteronomy (3:08)
08. Francesca Hayward - Beautiful Ghosts (Victoria’s Song) (2:50)
09. Andrew Lloyd Webber - Magical Gus (0:36)
10. Ian McKellen - Gus: The Theatre Cat (4:00)
11. Steven McRae; Robbie Fairchild - Skimbleshanks: The Railway Cat (4:00)
12. Taylor Swift - Macavity (5:11)
13. Laurie Davidson - Mr. Mistofelees (4:41)
14. Jennifer Hudson - Memory (4:25)
15. Judi Dench - The Addressing Of Cats (3:28)
16. Taylor Swift - Beautiful Ghosts (4:21)

foobar2000 1.3.7 / Dynamic Range Meter 1.1.1
log date: 2019-12-23 01:21:37

––––––––––––––––––––––––––––––––––––––––
Analyzed: Andrew Lloyd Webber / Cats: Highlights From The Motion Picture Soundtrack (1-2)
Cast Of The Motion Picture "Cats" / Cats: Highlights From The Motion Picture Soundtrack (3)
Danny Collins / Cats: Highlights From The Motion Picture Soundtrack (4)
Francesca Hayward / Cats: Highlights From The Motion Picture Soundtrack (5)
Ian McKellen / Cats: Highlights From The Motion Picture Soundtrack (6)
James Corden / Cats: Highlights From The Motion Picture Soundtrack (7)
Jason DeRulo / Cats: Highlights From The Motion Picture Soundtrack (8)
Jennifer Hudson / Cats: Highlights From The Motion Picture Soundtrack (9)
Judi Dench / Cats: Highlights From The Motion Picture Soundtrack (10)
Laurie Davidson / Cats: Highlights From The Motion Picture Soundtrack (11)
Rebel Wilson / Cats: Highlights From The Motion Picture Soundtrack (12)
Robbie Fairchild / Cats: Highlights From The Motion Picture Soundtrack (13)
Steven McRae / Cats: Highlights From The Motion Picture Soundtrack (14)
Taylor Swift / Cats: Highlights From The Motion Picture Soundtrack (15-16)
––––––––––––––––––––––––––––––––––––––––

DR Peak RMS Duration Track
––––––––––––––––––––––––––––––––––––––––
DR7 -0.20 dB -11.25 dB 1:39 01-Overture (From The Motion Picture Soundtrack "Cats")
DR9 -13.50 dB -27.16 dB 0:36 09-Magical Gus (From The Motion Picture Soundtrack "Cats")
DR7 -0.20 dB -9.78 dB 4:49 02-Jellicle Songs For Jellicle Cats (From The Motion Picture Soundtrack "Cats")
DR9 -0.20 dB -13.20 dB 3:54 06-Mungojerrie And Rumpleteazer (From The Motion Picture Soundtrack "Cats")
DR11 -0.23 dB -16.63 dB 2:50 08-Beautiful Ghosts (Victoria’s Song) (From The Motion Picture Soundtrack "Cats")
DR13 -0.49 dB -17.23 dB 4:00 10-Gus: The Theatre Cat (From The Motion Picture Soundtrack "Cats")
DR6 -0.20 dB -8.96 dB 3:43 05-Bustopher Jones: The Cat About Town (From The Motion Picture Soundtrack "Cats")
DR7 -0.20 dB -8.74 dB 3:48 04-The Rum Tum Tugger (From The Motion Picture Soundtrack "Cats")
DR9 -0.20 dB -13.96 dB 4:25 14-Memory (From The Motion Picture Soundtrack "Cats")
DR7 -0.20 dB -13.45 dB 3:28 15-The Addressing Of Cats (From The Motion Picture Soundtrack "Cats")
DR8 -0.20 dB -13.73 dB 4:41 13-Mr. Mistofelees (From The Motion Picture Soundtrack "Cats")
DR9 -0.20 dB -12.72 dB 4:33 03-The Old Gumbie Cat (From The Motion Picture Soundtrack "Cats")
DR10 -0.20 dB -15.27 dB 3:08 07-Old Deuteronomy (From The Motion Picture Soundtrack "Cats")
DR6 -0.20 dB -10.05 dB 4:00 11-Skimbleshanks: The Railway Cat (From The Motion Picture Soundtrack "Cats")
DR8 -0.20 dB -11.85 dB 5:11 12-Macavity (From The Motion Picture Soundtrack "Cats")
DR8 -0.70 dB -13.19 dB 4:21 16-Beautiful Ghosts (From The Motion Picture Soundtrack "Cats")
––––––––––––––––––––––––––––––––––––––––

Number of tracks: 16
Official DR value: DR8

Samplerate: 44100 Hz
Channels: 2
Bits per sample: 24
Bitrate: 1435 kbps
Codec: FLAC
================================================================================


All thanks go to the original releaser