Falco - Auf der Flucht (1982/2019) [Official Digital Download]

Posted By: shamanicus
Falco - Auf der Flucht (1982/2019) [Official Digital Download]

Falco - Auf der Flucht (1982-2019)
FLAC (tracks) 24-bit/44.1 kHz | 19:54 | 249 mb
Studio Master, Official Digital Download | Artwork: front Cover

Ein hervorragende Beitrag aus Falcos genialem LP-Debüt "Einzelhaft", auf dem eigentlich jeder einzelne Titel vollends überzeugte. "Auf der Flucht" ist ein gehetzter, schneller Synthi-Funk-Rock, der nicht nur gehetzt klingt, sondern auch von (von der Staatsmacht) gehetzten, aufmüpfigen Jugendlichen, Hausbesetzern und Alternativen 1968 in Berlin bzw. 1981 in Zürich, gekonnt, gewitzt und zutreffend erzählt. Falco hat sich nicht nur als brillanter Yuppie-Darsteller, sondern auch und gerade als Zeitgeist-Chronist und gleichsam -Kritiker einen sehr guten Namen gemacht!!!

Tracklist:

01. Auf der Flucht
02. Auf der Flucht (Specially Remixed 12" Version)
03. Auf der Flucht (Specially Remixed 7" Edit)
04. Auf der Flucht (12" Edit)


foobar2000 1.4 / Dynamic Range Meter 1.1.1
log date: 2020-01-14 20:57:18

––––––––––––––––––––––––––––––––––––––––
Analyzed: Falco / Auf der Flucht
––––––––––––––––––––––––––––––––––––––––

DR Peak RMS Duration Track
––––––––––––––––––––––––––––––––––––––––
DR12 -0.50 dB -13.68 dB 4:15 01-Auf der Flucht
DR12 -0.50 dB -13.69 dB 4:35 02-Auf der Flucht (Specially Remixed 12" Version)
DR12 -0.50 dB -13.71 dB 3:43 03-Auf der Flucht (Specially Remixed 7" Edit)
DR11 -0.50 dB -13.03 dB 7:22 04-Auf der Flucht (12" Edit)
––––––––––––––––––––––––––––––––––––––––

Number of tracks: 4
Official DR value: DR12

Samplerate: 44100 Hz
Channels: 2
Bits per sample: 24
Bitrate: 1718 kbps
Codec: FLAC
================================================================================




Thanks to the Original customer.