Johnny Cash - Orange Blossom Special (1965/2014) [Official Digital Download 24/96]

Posted By: shamanicus
Johnny Cash - Orange Blossom Special (1965/2014) [Official Digital Download 24/96]

Johnny Cash - Orange Blossom Special (1965/2014)
FLAC (tracks) 24-bit/96 kHz | 33:56 | 356 mb
Studio Master, Official Digital Download | Artwork: Front Cover

Even if the best and most popular songs on this 1965 album are the ones most likely to show up on greatest-hits compilations ("The Long Black Veil, "Orange Blossom Special," "It Ain't Me Babe"), it certainly rates as one of Cash's finer non-greatest-hits releases. If nothing else, it would have historical importance for the inclusion of three Bob Dylan covers, at a time when Dylan was just starting to get heavily covered by pop musicians (and not often covered by country ones).

"It Ain't Me Babe," with duet vocals by June Carter, was the most notable of them, although hearing it these days, some may be taken aback by the mariachi horns. Ditto for "Mama, You Been on My Mind" (which Dylan himself had not released when Cash recorded it), where it's startling to hear Boots Randolph's yakety sax come in for a bit. "The Long Black Veil," though, is an ageless classic, and the title cut one of his best train-oriented songs. The rest of the album is respectable and diverse, if not as outstanding, and includes the stark Cash original "You Wild Colorado," more duet vocals from Carter on the Johnny Horton cover "When It's Springtime in Alaska," a bouncy rendition of the Carter Family's "Wildwood Flower," the spiritual "Amen," and, less successfully, a sentimental reading of "Danny Boy." The 2002 CD reissue adds three bonus tracks that were previously unavailable in the United States (and had been included on the Bear Family box set The Man in Black: 1963-1969), among them an acoustic cover of A.P. Carter's "Engine 143" and a different version of "Mama, You Been on My Mind" (this time with mariachi horns!).
Richie Unterberger



Tracklist:

01. Orange Blossom Special
02. The Long Black Veil
03. It Ain't Me Babe
04. The Wall
05. Don't Think Twice, It's All Right
06. You Wild Colorado
07. Mama, You Been on My Mind
08. When It's Springtime in Alaska (It's Forty Below)
09. All of God's Children Ain't Free
10. Danny Boy
11. Wildwood Flower
12. Amen


foobar2000 1.4 / Dynamic Range Meter 1.1.1
log date: 2020-01-14 20:57:34

––––––––––––––––––––––––––––––––––––––––
Analyzed: Johnny Cash / Orange Blossom Special
––––––––––––––––––––––––––––––––––––––––

DR Peak RMS Duration Track
––––––––––––––––––––––––––––––––––––––––
DR11 -0.15 dB -13.00 dB 3:09 01-Orange Blossom Special
DR11 -0.63 dB -13.64 dB 3:09 02-The Long Black Veil
DR10 -0.68 dB -13.68 dB 3:07 03-It Ain't Me Babe
DR10 -0.81 dB -13.45 dB 2:13 04-The Wall
DR11 -0.13 dB -12.91 dB 3:00 05-Don't Think Twice, It's All Right
DR11 -3.08 dB -16.89 dB 1:49 06-You Wild Colorado
DR12 -0.05 dB -13.34 dB 3:06 07-Mama, You Been on My Mind
DR11 -2.78 dB -15.82 dB 2:39 08-When It's Springtime in Alaska (It's Forty Below)
DR11 -0.71 dB -13.50 dB 2:15 09-All of God's Children Ain't Free
DR13 -0.07 dB -16.67 dB 5:11 10-Danny Boy
DR12 -0.99 dB -14.70 dB 2:14 11-Wildwood Flower
DR10 -1.60 dB -14.03 dB 2:06 12-Amen
––––––––––––––––––––––––––––––––––––––––

Number of tracks: 12
Official DR value: DR11

Samplerate: 96000 Hz
Channels: 2
Bits per sample: 24
Bitrate: 1459 kbps
Codec: FLAC
================================================================================




Thanks to the Original customer.