Johnny Cash - Ride This Train (1960/2013) [Official Digital Download 24/96]

Posted By: shamanicus
Johnny Cash - Ride This Train (1960/2013) [Official Digital Download 24/96]

Johnny Cash - Ride This Train (1960/2013)
FLAC (tracks) 24-bit/96 kHz | 32:22 | 369 mb
Studio Master, Official Digital Download | Artwork: Front Cover

Ride This Train was the first explicit Americana concept album that Johnny Cash recorded. As the title implies, the album is about railroads, how they developed, and how they changed the land. Apart from a couple of songs, Ride This Train isn't comprised of traditional folk ballads - they are songs that tell the history of trains and rails, offering an educational lesson. Cash expounds on the songs with brief spoken narratives. Though it is hard to fault Cash's intentions, the songs aren't very good (although "The Shifting Whispering Sands" is a standout) and the history is a bit simplistic and silly. On the whole, Ride This Train sounds as if it were of a piece with the Walt Disney educational features produced at the same time, and like those films, it is more interesting as an historical artifact than a piece of art.
Stephen Thomas Erlewine


Tracklist:

01. Loading Coal
02. Slow Rider
03. Lumberjack
04. Dorraine of Ponchartrain
05. Going to Memphis
06. When Papa Played the Dobro
07. Boss Jack
08. Old Doc Brown


foobar2000 1.4 / Dynamic Range Meter 1.1.1
log date: 2020-01-14 20:57:45

––––––––––––––––––––––––––––––––––––––––
Analyzed: Johnny Cash / Ride This Train
––––––––––––––––––––––––––––––––––––––––

DR Peak RMS Duration Track
––––––––––––––––––––––––––––––––––––––––
DR10 0.00 dB -13.15 dB 4:59 01-Loading Coal
DR10 0.00 dB -12.97 dB 4:09 02-Slow Rider
DR11 0.00 dB -13.63 dB 3:03 03-Lumberjack
DR10 -0.07 dB -12.79 dB 4:46 04-Dorraine of Ponchartrain
DR12 -0.23 dB -14.57 dB 4:24 05-Going to Memphis
DR11 -1.33 dB -15.08 dB 2:54 06-When Papa Played the Dobro
DR11 -0.39 dB -14.61 dB 3:55 07-Boss Jack
DR14 0.00 dB -16.97 dB 4:12 08-Old Doc Brown
––––––––––––––––––––––––––––––––––––––––

Number of tracks: 8
Official DR value: DR11

Samplerate: 96000 Hz
Channels: 2
Bits per sample: 24
Bitrate: 1479 kbps
Codec: FLAC
================================================================================




Thanks to the Original customer.