Tags
Language
Tags

Los Indios Tabajaras - Dreams of Love (1970/2020)

Posted By: v3122
Los Indios Tabajaras - Dreams of Love (1970/2020)

Los Indios Tabajaras - Dreams of Love (1970/2020)
FLAC (Tracks) 24-bit/96 kHz | Official Digital Download | Time: 00:31:52
Acoustic Guitar, Easy Listening | RCA - Legacy | ~ 693 Mb

Los Indios Tabajaras was a guitar duo of two brothers from Ceará, in the Northeast of Brazil.
Probably as early as 1943, RCA's Latin American arm signed them to a recording contract. In the early 1950s, they took a break from performing and went back to study the guitar. After returning to the stage later that same decade, they released an album in the United States on an RCA-owned label named Vox.
Throughout this period, they had a steady stream of releases on RCA in Mexico and one of these, a Mexican popular tune named "María Elena", became a steady seller, a success throughout Latin America and was finally released on a single in the U.S. in 1963. It spent 14 weeks on the Hot 100 in the fall of 1963.
RCA released albums by Los Indios Tabajaras into the 1980s.

~ discogs
Los Indios Tabajaras - Dreams of Love (1970/2020):

Tracklist:

01. Gypsy Airs
02. Valse (Opus 69 #2)
03. Prelude and Fugue #6 In D Minor (from the Well-Tempered Clavier)
04. Valse Triste
05. Liebestraum
06. Prelude #9 In F Major (from the Well-Tempered Clavier)
07. Tristesse

foobar2000 1.6.11 / Замер динамического диапазона (DR) 1.1.1
Дата отчёта: 2022-06-09 17:03:09

––––––––––––––––––––––––––––––––––––––––
Анализ: Los Indios Tabajaras / Dreams of Love
––––––––––––––––––––––––––––––––––––––––

DR Пики RMS Продолжительность трека
––––––––––––––––––––––––––––––––––––––––
DR13 -0.05 дБ -17.01 дБ 7:33 01-Gypsy Airs
DR12 -0.04 дБ -15.24 дБ 4:15 02-Valse (Opus 69 #2)
DR11 -0.05 дБ -14.55 дБ 3:07 03-Prelude and Fugue #6 In D Minor (from the Well-Tempered Clavier)
DR13 -0.05 дБ -17.50 дБ 4:25 04-Valse Triste
DR12 -0.04 дБ -15.46 дБ 4:17 05-Liebestraum
DR11 -0.15 дБ -13.67 дБ 4:23 06-Prelude #9 In F Major (from the Well-Tempered Clavier)
DR12 -0.05 дБ -15.31 дБ 3:55 07-Tristesse
––––––––––––––––––––––––––––––––––––––––

Количество треков: 7
Реальные значения DR: DR12

Частота: 96000 Гц
Каналов: 2
Разрядность: 24
Битрейт: 2865 кбит/с
Кодек: FLAC

All thanks go to the original releaser

Los Indios Tabajaras in my Blog

Download Los Indios Tabajaras - Dreams of Love (1970/2020):