Tags
Language
Tags

Los Indios Tabajaras - Song of the Islands (1969/2019)

Posted By: v3122
Los Indios Tabajaras - Song of the Islands (1969/2019)

Los Indios Tabajaras - Song of the Islands (1969/2019)
FLAC (Tracks) 24-bit/192 kHz | Official Digital Download | Time: 00:27:05
World, Acoustic Guitar, Easy Listening | RCA - Legacy | ~ 638 Mb

Los Indios Tabajaras was a guitar duo of two brothers from Ceará, in the Northeast of Brazil.
Probably as early as 1943, RCA's Latin American arm signed them to a recording contract. In the early 1950s, they took a break from performing and went back to study the guitar. After returning to the stage later that same decade, they released an album in the United States on an RCA-owned label named Vox.
Throughout this period, they had a steady stream of releases on RCA in Mexico and one of these, a Mexican popular tune named "María Elena", became a steady seller, a success throughout Latin America and was finally released on a single in the U.S. in 1963. It spent 14 weeks on the Hot 100 in the fall of 1963.
RCA released albums by Los Indios Tabajaras into the 1980s…

~ discogs
Los Indios Tabajaras - Song of the Islands (1969/2019):

Tracklist:

1. Song of the Islands
2. Bali Ha'i
3. I Will Remember You
4. Keep Your Eyes On the Hands
5. Sweet Leilani
6. My Isle of Golden Dreams
7. Hawaiian Wedding Song (Ke Kali Nei Au)
8. Beyond the Reef
9. My Little Grass Shack in Kealakekua, Hawaii
10. The Moon of Manakoora
11. Hawaiian Rhapsody

foobar2000 1.6.11 / Замер динамического диапазона (DR) 1.1.1
Дата отчёта: 2022-06-09 18:31:25

––––––––––––––––––––––––––––––––––––––––
Анализ: Los Indios Tabajaras / What The World Needs Now
––––––––––––––––––––––––––––––––––––––––

DR Пики RMS Продолжительность трека
––––––––––––––––––––––––––––––––––––––––
DR13 -0.31 дБ -15.90 дБ 2:29 01-What The World Needs Now Is Love
DR13 -0.10 дБ -14.81 дБ 2:31 02-Take Me Home, Country Roads
DR14 -1.05 дБ -16.27 дБ 2:33 03-The End Of The World
DR12 -0.76 дБ -14.98 дБ 2:35 04-Love Is Blue
DR14 -0.10 дБ -15.74 дБ 3:08 05-I've Lost You
DR12 -0.10 дБ -13.80 дБ 2:32 06-Spanish Harlem
DR14 -0.10 дБ -15.86 дБ 2:43 07-I Ain't Got Time Anymore
DR14 -0.10 дБ -16.59 дБ 2:28 08-To Be The One You Love (Theme from the film "The Anonymous Venetian")
DR13 -0.33 дБ -15.85 дБ 2:44 09-How Can You Mend A Broken Heart
DR13 -0.92 дБ -16.05 дБ 2:46 10-For All We Know (from the ABC Film "Lovers and Other Strangers")
DR14 -0.10 дБ -16.09 дБ 3:33 11-A Whiter Shade of Pale
––––––––––––––––––––––––––––––––––––––––

Количество треков: 11
Реальные значения DR: DR13

Частота: 192000 Гц
Каналов: 2
Разрядность: 24
Битрейт: 4558 кбит/с
Кодек: FLAC

All thanks go to the original releaser

Los Indios Tabajaras in my Blog

Download Los Indios Tabajaras - Song of the Islands (1969/2019):