Tags
Language
Tags

New Order - Singles (2005)

Posted By: v3122
New Order - Singles (2005)

New Order - Singles (2005)
FLAC (Tracks) 24-bit/96 kHz | Official Digital Download | Time: 02:13:20
Alternative Rock, Electro, Indie Rock, Pop Rock, Post-Punk, Synth-pop | Warner | ~ 2.89 Gb

Singles is a greatest hits album by English rock band New Order. It was released on 3 October 2005 by London Records. The two-disc compilation includes the band's singles released between 1981 and 2005. Unlike the CD version of earlier singles compilation Substance 1987, the B-sides are not included. While Substance 1987 aimed to showcase New Order's 12-inch singles, Singles instead features mostly seven-inch versions, some of which are rare and differ from the album versions.

The album includes three early singles that have never appeared on CD in their original form: "Ceremony", "Everything's Gone Green" and "Temptation". Additionally, an edit of the "Rough mix" of the song "Confusion" was created exclusively for this compilation. One song, "Turn", was released on this album in a new edited form, despite never being a single.

An updated edition of Singles was released on 9 September 2016, which adds "I'll Stay with You" from the 2013 album Lost Sirens and replaces the versions of "1963", "Run 2", "Bizarre Love Triangle", "True Faith", "Spooky", "Confusion", and "The Perfect Kiss". The reissue was remastered by Frank Arkwright,[5] and fixes the compression issues prevalent on the 2005 version…

~ wiki
New Order - Singles (2005):

Tracklist:

01 Ceremony (04:39)
02 Procession (04:30)
03 Everything's Gone Green (7" Version) (04:19)
04 Temptation (7" Version) (05:24)
05 Blue Monday (07:31)
06 Confusion (UK 7" Promo Edit) (04:09)
07 Thieves Like Us (7" Promo Edit) (03:56)
08 The Perfect Kiss (7" Edit) (04:25)
09 Sub-Culture (7" Edit) (03:26)
10 Shellshock (7" Edit) (04:24)
11 State of the Nation (7" Edit) (03:32)
12 Bizarre Love Triangle (7" Remix Edit) (03:45)
13 True Faith (7" Edit) (04:12)
14 Touched By the Hand of God (7" Edit) (03:43)
15 Blue Monday '88 (7" Version) (04:12)
16 Fine Time (7" Version) (03:10)
17 Round and Round (7" Version) (04:00)
18 Run 2 (7" Remix Edit) (03:38)
19 World In Motion (04:32)
20 Regret (04:11)
21 Ruined In a Day (Radio Edit) (03:59)
22 World (The Price of Love) [Radio Edit] (03:42)
23 Spooky (Minimix) (03:51)
24 Nineteen63 (Arthur Baker Radio Remix) (04:03)
25 Crystal (Radio Edit) (04:20)
26 60 Miles an Hour (Radio Edit) (03:48)
27 Here to Stay (Radio Edit) (03:56)
28 Krafty (Single Edit) (03:47)
29 Jetstream (Radio Edit) (03:46)
30 Waiting for the Sirens' Call (Rich Costey Radio Version) (03:52)
31 Turn (Stephen Street Edit) (04:12)
32 I'll Stay with You (Lost Sirens LP Version) (04:23)

foobar2000 1.6.11 / Dynamic Range Meter 1.1.1
log date: 2022-05-23 21:12:39

––––––––––––––––––––––––––––––––––––––––
Analyzed: New Order / Singles
––––––––––––––––––––––––––––––––––––––––

DR Peak RMS Duration Track
––––––––––––––––––––––––––––––––––––––––
DR8 -1.79 dB -11.38 dB 4:39 01-Ceremony
DR9 -1.18 dB -12.54 dB 4:30 02-Procession
DR9 -1.58 dB -12.82 dB 4:19 03-Everything's Gone Green (7" Version)
DR8 -1.20 dB -11.66 dB 5:24 04-Temptation (7" Version)
DR9 -1.17 dB -11.35 dB 7:31 05-Blue Monday
DR10 -1.36 dB -12.99 dB 4:09 06-Confusion (UK 7" Promo Edit)
DR9 -1.70 dB -12.88 dB 3:56 07-Thieves Like Us (7" Promo Edit)
DR10 -1.19 dB -12.96 dB 4:25 08-The Perfect Kiss (7" Edit)
DR10 -1.38 dB -12.25 dB 3:26 09-Sub-Culture (7" Edit)
DR9 -1.68 dB -12.03 dB 4:24 10-Shellshock (7" Edit)
DR9 -1.19 dB -11.63 dB 3:32 11-State of the Nation (7" Edit)
DR10 -1.13 dB -12.04 dB 3:45 12-Bizarre Love Triangle (7" Remix Edit)
DR8 -1.18 dB -10.55 dB 4:12 13-True Faith (7" Edit)
DR9 -1.19 dB -10.98 dB 3:43 14-Touched By the Hand of God (7" Edit)
DR9 -1.18 dB -12.25 dB 4:12 15-Blue Monday '88 (7" Version)
DR7 -1.18 dB -10.07 dB 3:10 16-Fine Time (7" Version)
DR8 -1.37 dB -11.10 dB 4:00 17-Round and Round (7" Version)
DR9 -1.36 dB -11.43 dB 3:38 18-Run 2 (7" Remix Edit)
DR9 -1.12 dB -11.56 dB 4:32 19-World In Motion
DR8 -1.13 dB -10.47 dB 4:11 20-Regret
DR8 -1.14 dB -10.81 dB 3:59 21-Ruined In a Day (Radio Edit)
DR9 -1.18 dB -11.44 dB 3:42 22-World (The Price of Love) [Radio Edit]
DR8 -1.14 dB -10.30 dB 3:51 23-Spooky (Minimix)
DR8 -1.16 dB -11.63 dB 4:03 24-Nineteen63 (Arthur Baker Radio Remix)
DR6 -1.45 dB -8.58 dB 4:20 25-Crystal (Radio Edit)
DR6 -1.47 dB -7.99 dB 3:48 26-60 Miles an Hour (Radio Edit)
DR7 -1.18 dB -10.05 dB 3:56 27-Here to Stay (Radio Edit)
DR7 -1.24 dB -10.00 dB 3:47 28-Krafty (Single Edit)
DR7 -1.18 dB -9.96 dB 3:46 29-Jetstream (Radio Edit)
DR6 -1.21 dB -8.24 dB 3:52 30-Waiting for the Sirens' Call (Rich Costey Radio Version)
DR7 -1.17 dB -9.23 dB 4:12 31-Turn (Stephen Street Edit)
DR7 -1.23 dB -9.25 dB 4:23 32-I'll Stay with You (Lost Sirens LP Version)
––––––––––––––––––––––––––––––––––––––––

Number of tracks: 32
Official DR value: DR8

Samplerate: 96000 Hz
Channels: 2
Bits per sample: 24
Bitrate: 2947 kbps
Codec: FLAC

All thanks go to the original releaser

New Order in my Blog

Download New Order - Singles (2005):