The Quill - Earthrise (2021) [Official Digital Download]

Posted By: shamanicus
The Quill - Earthrise (2021) [Official Digital Download]

The Quill - Earthrise (2021)
FLAC (tracks) 24-bit/44.1 kHz | 47:28 | 598 mb
Studio Master, Official Digital Download | Artwork: front cover

The ninth studio album from the Swedish hard rock institution. With a sound based on a wide range of influences, The Quill have released one quality album after another since their debut in 1995. The dynamic interplay between original vocalist Magnus Ekwall, drummer Jolle Atlagic (Hanoi Rocks, Electric Boys, Firebird), guitarist Christian Carlsson and bassist Roger Nilsson (Spiritual Beggars, Firebird) creates The Quill's unique, deep ‘70s heavy rock. No frills, just real rock at full throttle! Packed with catchy riffs, pounding bass lines and a fantastic frontman, this album will once again delight all fans of honest hard rock.

Tracklist:

01. Hallucinate
02. Keep on Moving
03. Dwarf Planet
04. Left Brain Blues
05. Earthrise
06. Evil Omen
07. 21st Century Sky
08. The Zone
09. Dead River


foobar2000 1.4 / Dynamic Range Meter 1.1.1
log date: 2021-03-26 23:50:35

––––––––––––––––––––––––––––––––––––––––
Analyzed: The Quill / Earthrise
––––––––––––––––––––––––––––––––––––––––

DR Peak RMS Duration Track
––––––––––––––––––––––––––––––––––––––––
DR5 -1.01 dB -7.27 dB 4:12 01-Hallucinate
DR5 -1.01 dB -6.85 dB 3:24 02-Keep on Moving
DR5 -1.01 dB -7.19 dB 7:18 03-Dwarf Planet
DR5 -1.01 dB -7.01 dB 3:59 04-Left Brain Blues
DR5 -1.01 dB -6.49 dB 4:34 05-Earthrise
DR5 -1.01 dB -7.29 dB 9:35 06-Evil Omen
DR5 -1.01 dB -6.41 dB 4:21 07-21st Century Sky
DR5 -1.01 dB -6.79 dB 6:10 08-The Zone
DR7 -1.01 dB -8.61 dB 3:55 09-Dead River
––––––––––––––––––––––––––––––––––––––––

Number of tracks: 9
Official DR value: DR5

Samplerate: 44100 Hz
Channels: 2
Bits per sample: 24
Bitrate: 1654 kbps
Codec: FLAC
================================================================================




Thanks to the Original customer.