VA - Industrial Strength Bluegrass- Southwestern Ohio's Musical Legacy (2021) [Official Digital Download 24/96]

Posted By: shamanicus
VA - Industrial Strength Bluegrass- Southwestern Ohio's Musical Legacy (2021) [Official Digital Download 24/96]

VA - Industrial Strength Bluegrass: Southwestern Ohio's Musical Legacy (2021)
FLAC (tracks) 24-bit/96 kHz | 53:10 | 1014 mb
Studio Master, Official Digital Download | Artwork: front cover, d.booklet

During the middle decades of the 20th century, the factories of southwestern Ohio drew hundreds of thousands of migrants from Appalachia, including innumerable musicians. Industrial Strength Bluegrass celebrates the music that these migrants made and loved, and explores a pivotal moment in the history of bluegrass and country music at large. Produced by beloved performer and radio personality Joe Mullins, the collection features many modern legends like Lee Ann Womack and Mo Pitney, plus a stellar lineup including Rhonda Vincent, Bobby Osborne, and Mullins himself, taking on tunes that have echoed across Ohio for decades.


Tracklist:

01. Joe Mullins & The Radio Ramblers - Readin', Rightin', Route 23
02. Dan Tyminski - 20/20 Vision
03. Mo Pitney - Suzanne
04. Lee Ann Womack - From Life's Other Side
05. Josh Williams - Larry Sparks Medley: Dark Hollow / a Face in the Crowd / These Old Blues
06. Doyle Lawson & Quicksilver - When He Blessed My Soul
07. Larry Cordle - The Rolling Mills of Middletown
08. Rhonda Vincent - Family Reunion
09. Sierra Hull - Mountain Strings
10. Ronnie Bowman - Stone Walls and Steel Bars
11. Dailey & Vincent - Are You Missing Me?
12. The Grascals - Once More
13. Jim Lauderdale - Barefoot Nellie
14. The Isaacs - Garden Tomb
15. Vince Gill - Baby Blue Eyes
16. Bobby Osborne - We'll Head Back to Harlan


foobar2000 1.4 / Dynamic Range Meter 1.1.1
log date: 2021-03-26 23:28:39

––––––––––––––––––––––––––––––––––––––––
Analyzed: Bobby Osborne / Industrial Strength Bluegrass: Southwestern Ohio's Musical Legacy (1)
Dailey & Vincent / Industrial Strength Bluegrass: Southwestern Ohio's Musical Legacy (2)
Dan Tyminski / Industrial Strength Bluegrass: Southwestern Ohio's Musical Legacy (3)
Doyle Lawson & Quicksilver / Industrial Strength Bluegrass: Southwestern Ohio's Musical Legacy (4)
Jim Lauderdale / Industrial Strength Bluegrass: Southwestern Ohio's Musical Legacy (5)
Joe Mullins & The Radio Ramblers / Industrial Strength Bluegrass: Southwestern Ohio's Musical Legacy (6)
Josh Williams / Industrial Strength Bluegrass: Southwestern Ohio's Musical Legacy (7)
Larry Cordle / Industrial Strength Bluegrass: Southwestern Ohio's Musical Legacy (8)
Lee Ann Womack / Industrial Strength Bluegrass: Southwestern Ohio's Musical Legacy (9)
Mo Pitney / Industrial Strength Bluegrass: Southwestern Ohio's Musical Legacy (10)
Rhonda Vincent / Industrial Strength Bluegrass: Southwestern Ohio's Musical Legacy (11)
Ronnie Bowman / Industrial Strength Bluegrass: Southwestern Ohio's Musical Legacy (12)
Sierra Hull / Industrial Strength Bluegrass: Southwestern Ohio's Musical Legacy (13)
The Grascals / Industrial Strength Bluegrass: Southwestern Ohio's Musical Legacy (14)
The Isaacs / Industrial Strength Bluegrass: Southwestern Ohio's Musical Legacy (15)
Vince Gill / Industrial Strength Bluegrass: Southwestern Ohio's Musical Legacy (16)
––––––––––––––––––––––––––––––––––––––––

DR Peak RMS Duration Track
––––––––––––––––––––––––––––––––––––––––
DR9 -0.40 dB -10.94 dB 2:26 16-We'll Head Back to Harlan
DR8 -0.51 dB -10.43 dB 2:26 11-Are You Missing Me?
DR9 -0.60 dB -11.67 dB 2:46 02-20/20 Vision
DR8 -1.32 dB -11.04 dB 3:04 06-When He Blessed My Soul
DR8 -0.42 dB -10.40 dB 2:31 13-Barefoot Nellie
DR8 -0.50 dB -10.62 dB 3:37 01-Readin', Rightin', Route 23
DR8 -0.60 dB -10.20 dB 5:20 05-Larry Sparks Medley: Dark Hollow / a Face in the Crowd / These Old Blues
DR9 -0.80 dB -11.77 dB 3:56 07-The Rolling Mills of Middletown
DR9 -0.60 dB -13.07 dB 5:36 04-From Life's Other Side
DR8 -0.60 dB -10.60 dB 2:48 03-Suzanne
DR9 -0.50 dB -11.12 dB 3:28 08-Family Reunion
DR8 -0.60 dB -10.29 dB 2:26 10-Stone Walls and Steel Bars
DR8 -0.80 dB -10.12 dB 3:43 09-Mountain Strings
DR8 -0.40 dB -10.59 dB 2:55 12-Once More
DR7 -0.60 dB -10.30 dB 2:48 14-Garden Tomb
DR9 -0.60 dB -10.52 dB 3:21 15-Baby Blue Eyes
––––––––––––––––––––––––––––––––––––––––

Number of tracks: 16
Official DR value: DR8

Samplerate: 96000 Hz
Channels: 2
Bits per sample: 24
Bitrate: 2707 kbps
Codec: FLAC
================================================================================




Thanks to the Original customer.