Agnes Obel - Live from Brooklyn (EP) (2021) [Official Digital Download]

Posted By: delpotro
Agnes Obel - Live from Brooklyn (EP) (2021) [Official Digital Download]

Agnes Obel - Live from Brooklyn (EP) (2021)
FLAC (tracks) 24-bit/44,1 kHz | Front Cover | Time - 19:50 minutes | 213 MB
Modern Classical, Chamber Jazz, Art Pop, Female Vocal | Label: Deutsche Grammophon, Official Digital Download

Following the release of her forth studio studio album Myopia in 2020, Agnes Obel returns with a new four track digital EP Live from Brooklyn. The live performances, recorded during Agnes’ intimate National Sawdust shows in Brooklyn, New York in January 2020, include four tracks from Myopia: "Camera’s Rolling", "Island Of Doom", "Myopia" and "Won’t You Call Me".

Tracklist:
1. Camera's Rolling (Live from Brooklyn) (04:34)
2. Island Of Doom (Live from Brooklyn) (05:35)
3. Myopia (Live from Brooklyn) (05:08)
4. Won't You Call Me (Live from Brooklyn) (04:30)

foobar2000 1.6.7 beta 2 / Dynamic Range Meter 1.1.1
log date: 2021-05-21 12:58:36

––––––––––––––––––––––––––––––––––––––––
Analyzed: Agnes Obel / Live from Brooklyn
––––––––––––––––––––––––––––––––––––––––

DR Peak RMS Duration Track
––––––––––––––––––––––––––––––––––––––––
DR7 -0.33 dB -9.64 dB 4:35 01-Camera's Rolling (Live from Brooklyn)
DR8 -0.33 dB -10.57 dB 5:35 02-Island of Doom (Live from Brooklyn)
DR8 -0.33 dB -10.77 dB 5:09 03-Myopia (Live from Brooklyn)
DR8 -0.33 dB -11.49 dB 4:31 04-Won't You Call Me (Live from Brooklyn)
––––––––––––––––––––––––––––––––––––––––

Number of tracks: 4
Official DR value: DR8

Samplerate: 44100 Hz
Channels: 2
Bits per sample: 24
Bitrate: 1439 kbps
Codec: FLAC
================================================================================


Thanks to the Original customer!