Tags
Language
Tags

Arca - Madre (EP) (2021) [Official Digital Download]

Posted By: delpotro
Arca - Madre (EP) (2021) [Official Digital Download]

Arca - Madre (EP) (2021)
FLAC (tracks) 24-bit/44,1 kHz | Front Cover | Time - 32:10 minutes | 319 MB
Experimental Electronic, Art Pop | Label: XL Recordings, Official Digital Download

Arca drops the dekunstructed club electronyx in favor of captivating church-core theatrics - think Michael Nyman x Björk, ish.

Quickly following up last year's solid "KiCk i", Arca takes an unexpected left turn here on "Madre", eschewing daaclub in favor of Catholic theatrics and classical minimalism. Teaming up with virtuoso cellist Oliver Coates, Alejandra Ghersi allows her voice to fully flourish in center stage, rising and falling with a ballerina's poise against Coates' haunted slides. Title track 'Madre' clocks in at almost ten melancholy minutes, heaving with arthouse charm and sounding like the soundtrack to a queer period drama centered around the Spanish Inquisition. It's delicate, erotic and morose, glistening like sweaty, naked flesh in candlelight or a tear-sodden rag at the bedside.

'Madre' is joined by 'Madreviolo', a companion piece that loses Coates' ethereal strings and replaces them with eerie staccato plucks. We're then treated to an acapella and instrumental version, which oddly each work well on their own, complimenting the original's stark minimalism. Ghersi has been teasing this level of sensual, operatic bombast for ages now, not least in her ongoing creative relationship with Björk, but on "Madre" she makes a bold, assertive move that transcends her influences. Really good this.

Tracklist:
1. Madre (feat. Oliver Coates) (09:00)
2. Madreviolo (07:09)
3. Madre Acapella (08:53)
4. Violo (07:07)

foobar2000 1.4.1 / Dynamic Range Meter 1.1.1
log date: 2021-01-22 13:08:03

––––––––––––––––––––––––––––––––––––––––
Analyzed: Arca / Madre
––––––––––––––––––––––––––––––––––––––––

DR Peak RMS Duration Track
––––––––––––––––––––––––––––––––––––––––
DR11 -0.10 dB -14.68 dB 9:01 01-Madre
DR9 -0.10 dB -11.26 dB 7:09 02-Madreviolo
DR7 -7.35 dB -17.81 dB 8:53 03-Madre Acapella
DR11 -0.11 dB -14.24 dB 7:07 04-Violo
––––––––––––––––––––––––––––––––––––––––

Number of tracks: 4
Official DR value: DR9

Samplerate: 44100 Hz
Channels: 2
Bits per sample: 24
Bitrate: 1334 kbps
Codec: FLAC
================================================================================


Thanks to the Original customer!