Bob Moses - Desire (2020) [Official Digital Download]

Posted By: delpotro
Bob Moses - Desire (2020) [Official Digital Download]

Bob Moses - Desire (2020)
FLAC (tracks) 24-bit/44,1 kHz | Front Cover | Time - 30:40 minutes | 346 MB
Electronic, Deep House | Label: Domino, Official Digital Download

Bob Moses for their next release, Desire, have written a concept record for the club. Presented over six continuously mixed tracks, it's a love tale for the digital age: all about the positives and pitfalls of humanity’s driving wants, especially in these technology-driven times.

Tracklist:
1. Love We Found (05:52)
2. The Blame (06:32)
3. Bob Moses & ZHU – Desire (05:52)
4. Hold Me Up (02:24)
5. Outlier (04:48)
6. Ordinary Day (05:11)

foobar2000 1.4.1 / Dynamic Range Meter 1.1.1
log date: 2021-01-13 20:57:43

––––––––––––––––––––––––––––––––––––––––
Analyzed: Bob Moses / Desire
––––––––––––––––––––––––––––––––––––––––

DR Peak RMS Duration Track
––––––––––––––––––––––––––––––––––––––––
DR5 -1.61 dB -8.05 dB 5:52 01-Love We Found
DR5 -1.61 dB -7.80 dB 6:32 02-The Blame
DR4 -1.61 dB -7.07 dB 5:52 03-Desire (feat. Zhu)
DR6 -1.61 dB -10.47 dB 2:24 04-Hold Me Up
DR5 -1.61 dB -8.13 dB 4:48 05-Outlier
DR5 -1.61 dB -9.17 dB 5:11 06-Ordinary Day
––––––––––––––––––––––––––––––––––––––––

Number of tracks: 6
Official DR value: DR5

Samplerate: 44100 Hz
Channels: 2
Bits per sample: 24
Bitrate: 1568 kbps
Codec: FLAC
================================================================================


Thanks to the Original customer!