Tags
Language
Tags

bvdub - Burn Back Time (2020) [Official Digital Download]

Posted By: delpotro
bvdub - Burn Back Time (2020) [Official Digital Download]

bvdub - Burn Back Time (2020)
FLAC (tracks) 24-bit/44,1 kHz | Front Cover | Time - 78:44 minutes | 835 MB
Electronic, Ambient | Label: Silent Reign, Official Digital Download

Magnificent work. The treated pianos echoing in the distance create a perfect nostalgic atmosphere that is both melancholic and hopeful at the same time.

Tracklist:
1. Melting Spires (21:42)
2. Old Loves Never Lie (19:13)
3. Ablaze In Your Air (20:30)
4. Our Slow Unfolding (17:19)

foobar2000 1.4.1 / Dynamic Range Meter 1.1.1
log date: 2020-06-17 20:02:58

––––––––––––––––––––––––––––––––––––––––
Analyzed: bvdub / Burn Back Time
––––––––––––––––––––––––––––––––––––––––

DR Peak RMS Duration Track
––––––––––––––––––––––––––––––––––––––––
DR5 -0.31 dB -8.99 dB 21:42 01-Melting Spires
DR5 -0.31 dB -8.00 dB 19:13 02-Old Loves Never Lie
DR6 -0.31 dB -8.57 dB 20:30 03-Ablaze In Your Air
DR6 -0.31 dB -10.57 dB 17:19 04-Our Slow Unfolding
––––––––––––––––––––––––––––––––––––––––

Number of tracks: 4
Official DR value: DR6

Samplerate: 44100 Hz
Channels: 2
Bits per sample: 24
Bitrate: 1489 kbps
Codec: FLAC
================================================================================


Thanks to the Original customer!