Tags
Language
Tags

Cabaret Voltaire - Shadow of Fear (2020) [Official Digital Download 24/48]

Posted By: delpotro
Cabaret Voltaire - Shadow of Fear (2020) [Official Digital Download 24/48]

Cabaret Voltaire - Shadow of Fear (2020)
FLAC (tracks) 24-bit/48 kHz | Front Cover | Time - 58:21 minutes | 729 MB
Experimental Electronic, Industrial, Techno | Label: Mute Records, Official Digital Download

Shadow of Fear is Cabaret Voltaire’s first studio album in 26 years. Richard H. Kirk is the sole remaining member; he’s released many acclaimed solo albums, having invented bleep techno via his groundbreaking work in Sweet Exorcist. Kirk has formed this new album from a series of pulverising live shows. The tone and personality of CV is ingrained in its core as it dances across techno, dub, house, 1970s Germany and general esoteric explorations coupled with mangled vocal samples.

Tracklist:
1. Be Free (06:25)
2. The Power (Of Their Knowledge) (06:30)
3. Night Of The Jackal (06:38)
4. Microscopic Flesh Fragment (06:03)
5. Papa Nine Zero Delta United (07:43)
6. Universal Energy (10:58)
7. Vasto (07:40)
8. What's Goin' On (06:24)

foobar2000 1.4.1 / Dynamic Range Meter 1.1.1
log date: 2020-11-20 11:22:07

––––––––––––––––––––––––––––––––––––––––
Analyzed: Cabaret Voltaire / Shadow of Fear
––––––––––––––––––––––––––––––––––––––––

DR Peak RMS Duration Track
––––––––––––––––––––––––––––––––––––––––
DR10 -0.30 dB -12.47 dB 6:25 01-Be Free
DR9 0.00 dB -10.36 dB 6:30 02-The Power (Of Their Knowledge)
DR10 -0.20 dB -11.45 dB 6:38 03-Night of the Jackal
DR10 -0.38 dB -13.57 dB 6:03 04-Microscopic Flesh Fragment
DR10 -0.28 dB -12.24 dB 7:43 05-Papa Nine Zero Delta United
DR10 -0.24 dB -11.80 dB 10:58 06-Universal Energy
DR9 -0.34 dB -10.31 dB 7:40 07-Vasto
DR8 -0.30 dB -9.78 dB 6:24 08-What's Goin' On
––––––––––––––––––––––––––––––––––––––––

Number of tracks: 8
Official DR value: DR9

Samplerate: 48000 Hz
Channels: 2
Bits per sample: 24
Bitrate: 1775 kbps
Codec: FLAC
================================================================================


Thanks to the Original customer!