Tags
Language
Tags

Fiona Apple - When the Pawn... (Vinyl Reissue) (1999/2020) [24bit/192kHz]

Posted By: delpotro
Fiona Apple - When the Pawn... (Vinyl Reissue) (1999/2020) [24bit/192kHz]

Fiona Apple - When the Pawn… (Vinyl Reissue) (1999/2020)
Vinyl Rip | FLAC (tracks) 24-bit/192 kHz | Time - 42:40 minutes | 1,7 GB | Artwork - 76 MB
Baroque Pop, Pop Rock, Female Vocal | Label: Vinyl Me, Please

While Tidal introduced us to Apple, the awkward and sullen girl, When the Pawn… had her shooting back with a fiery vengeance at a time when Tori Amos and Alanis Morissette were making anger feminine and more mainstream than their punk predecessors. On the record, Apple sings with a gnarly gruffness. She begins most songs with a deceptive sweetness, building to an angsty climax, wielding her voice as a weapon against ex-boyfriends and bullies. This now on vinyl for the first time ever!
Tracklist:
A1 – On The Bound
A2 – To Your Love
A3 – Limp
A4 – Love Ridden
A5 – Paper Bag
B6 – A Mistake
B7 – Fast As You Can
B8 – The Way Things Are
B9 – Get Gone
B10 – I Know

foobar2000 1.5.4 / Dynamic Range Meter 1.1.1
log date: 2021-05-19 08:59:13

––––––––––––––––––––––––––––––––––––––––
Analyzed: Fiona Apple / When The Pawn…
––––––––––––––––––––––––––––––––––––––––

DR Peak RMS Duration Track
––––––––––––––––––––––––––––––––––––––––
DR10 -0.35 dB -12.28 dB 5:24 A1-On The Bound
DR9 -1.54 dB -11.81 dB 3:41 A2-To Your Love
DR9 -1.09 dB -13.73 dB 3:31 A3-Limp
DR10 -2.97 dB -18.15 dB 3:23 A4-Love Ridden
DR9 -1.96 dB -12.71 dB 3:40 A5-Paper Bag
DR9 -0.41 dB -11.42 dB 4:59 B6-A Mistake
DR9 -1.09 dB -12.24 dB 4:40 B7-Fast As You Can
DR11 0.00 dB -13.17 dB 4:19 B8-The Way Things Are
DR8 -0.61 dB -12.56 dB 4:11 B9-Get Gone
DR10 -1.55 dB -14.44 dB 4:53 B10-I Know
––––––––––––––––––––––––––––––––––––––––

Number of tracks: 10
Official DR value: DR10

Samplerate: 192000 Hz
Channels: 2
Bits per sample: 24
Bitrate: 5655 kbps
Codec: FLAC
================================================================================


Vinyl State Class Code: Mint
Playback device: Micro Seiki DD-8 + ZYX R100 Fuji S
Preamplifier: PS audio Phono Stage + Tube Preamp (Telefunken)
ADC: TASCAM HS-P82
Processing: Removed clicks (manually)

Thanks to the Original customer!