Tags
Language
Tags

Gorillaz - D-Sides (Record Store Day 2020 Vinyl) (2007/2020) [24bit/96kHz]

Posted By: delpotro
Gorillaz - D-Sides (Record Store Day 2020 Vinyl) (2007/2020) [24bit/96kHz]

Gorillaz - D-Sides (Record Store Day 2020 Vinyl) (2007/2020)
Vinyl Rip | FLAC (tracks) 24-bit/96 kHz | Front Cover | Time - 117:01 minutes | 2,28 GB
Alternative Rock, Electronic, Trip-Hop, Pop | Label: Parlophone Records

"D-Sides" is a compilation of b-sides and remixes from singles and bonus tracks for Gorillaz second album, "Demon Days." The 22 track album also includes unreleased tracks recorded during the album session. Originally released in 2007, this is the first time "D-sides" has been available on vinyl. The audio has been remastered and the 3-LP set is pressed on 180g vinyl.

Tracklist:
A1 – 68 State
A2 – People
A3 – Hongkongaton
A4 – We Are Happy Landfill
B1 – Hong Kong
B2 – Highway (Under Construction)
B3 – Rockit
B4 – Bill Murray (feat. The Bees)
C1 – The Swagga
C2 – Murdoc Is God
C3 – Spitting Out The Demons
C4 – Don't Get Lost In Heaven (Original Demo Version)
C5 – Stop The Dams (feat. Ghostigital & The Reykjavik West End Brass Band)
D1 – Dare (DFA Remix) (feat. Shaun Ryder)
D2 – Feel Good Inc. (Stanton Warriors Remix) (feat. De La Soul)
E1 – Kids With Guns (Jamie T's Turns To Monsters Mix)
E2 – Dare (Soulwax Remix) (feat. Shaun Ryder)
E3 – Kids With Guns (Hot Chip Remix)
E4 – El Manana (Metronomy Remix)
F1 – Dare (Junior Sanchez Remix) (feat. Shaun Ryder)
F2 – Dirty Harry (Schtung Chinese New Year Remix)
F3 – Kids With Guns (Quiet Village Remix)

foobar2000 1.4.1 / Dynamic Range Meter 1.1.1
log date: 2021-01-11 14:57:39

––––––––––––––––––––––––––––––––––––––––
Analyzed: Gorillaz / D-Sides
––––––––––––––––––––––––––––––––––––––––

DR Peak RMS Duration Track
––––––––––––––––––––––––––––––––––––––––
DR9 -3.57 dB -14.49 dB 4:47 A1-68 State
DR11 -4.84 dB -18.05 dB 3:28 A2-People
DR10 -5.17 dB -17.70 dB 3:33 A3-Hongkongaton
DR10 -3.60 dB -16.83 dB 3:39 A4-We Are Happy Landfill
DR11 -5.33 dB -19.01 dB 7:14 B1-Hong Kong
DR10 -2.96 dB -15.68 dB 4:21 B2-Highway (Under Construction)
DR12 -3.08 dB -16.45 dB 3:33 B3-Rockit
DR11 -3.86 dB -16.05 dB 3:53 B4-Bill Murray
DR11 -2.78 dB -16.71 dB 4:57 C1-The Swagga
DR10 -3.13 dB -15.39 dB 2:26 C2-Murdoc Is God
DR11 -2.82 dB -16.39 dB 5:10 C3-Spitting Out The Demons
DR12 -2.53 dB -15.98 dB 2:29 C4-Don't Get Lost In Heaven (Original Demo Version)
DR12 -5.43 dB -21.74 dB 5:38 C5-Stop The Dams
DR11 -3.33 dB -16.30 dB 12:14 D1-Dare (DFA Remix)
DR10 -3.29 dB -16.20 dB 7:24 D2-Feel Good Inc. (Stanton Warriors Remix)
DR11 -5.64 dB -19.71 dB 4:22 E1-Kids With Guns (Jamie T's Turns To Monsters Mix)
DR12 -3.08 dB -17.09 dB 5:43 E2-Dare (Soulwax Remix)
DR10 -3.66 dB -16.65 dB 7:09 E3-Kids With Guns (Hot Chip Remix)
DR9 -4.79 dB -16.52 dB 5:44 E4-El Manana (Metronomy Remix)
DR10 -4.49 dB -15.38 dB 5:25 F1-Dare (Junior Sanchez Remix)
DR10 -4.92 dB -18.20 dB 3:53 F2-Dirty Harry (Schtung Chinese New Year Remix)
DR10 -4.83 dB -17.75 dB 10:02 F3-Kids With Guns (Quiet Village Remix)
––––––––––––––––––––––––––––––––––––––––

Number of tracks: 22
Official DR value: DR11

Samplerate: 96000 Hz
Channels: 2
Bits per sample: 24
Bitrate: 2794 kbps
Codec: FLAC
================================================================================



Rega P10 Turntable with Rega P10 PSU > Virgin Vinyl > Rega Apheta 3 Cartridge > PS Audio NuWave Phono Converter ADC > AudioQuest Carbon USB Cable > USB-IN > Audition CC 2019 @ 24bit float, 96kHz capture.


Processing:

24bit wav > Run through Click Repair 3.9.9 at 10/0 on DeClick except B3/C3 > Volume Boost +.73/3.82/4.58/2.51/2.05/1.82 DB > Remove DC Bias > Saved as 24bit,96kHz WAV > FLAC > Tagged with Discogs tagger through Foobar.

Thanks to the Original customer!