Healy - Tungsten (2021) [Official Digital Download]

Posted By: El Misha
Healy - Tungsten (2021) [Official Digital Download]

Healy - Tungsten (2021)
FLAC (tracks) 24-bit/44.10 kHz | Time - 33:47 | 346 MB
Studio Master, Official Digital Download | Artwork: Front cover

Whatever it is, it's welcome. This eclectic artist returns with just over 30 minutes of new music on "Tungsten." With Ethan Healy — who goes by his last name when performing — you have hip-hop, indie rock and acoustic elements all colliding in unpredictable and exciting ways.

One song might have a skittering drum line with drowsy vocals and another might just be Healy heartfully singing 12 computer-distorted words over and over in a song snippet punctuated by his falsetto. There's a thrilling experimental edge to his music, like what Mac Miller sounded like at the end.

Clocking in at a trim under three minutes is the superb "Nikes On," a lament about how time is moving fast. And "Back on the Fence" is a dreamy, helium-filled piano-led tune with Swedish artist Becky and the Birds.

Ambient sounds have always attracted Healy. Birds chirping, train whistles and the jingling of car keys appeared on his first full-length album "Subluxe" in 2017, which gave us the superb "Unwind." This time there's water running, planes flying and snippets of conversation.

"Tungsten" is a more sombre affair, with most of the songs looking backward and inward with unease. "Now look inside the mirror and see my nemesis," he sings on "Back in Time." On the outstanding "Second Wind," he repeats, "Gotta get outta my mind."

His smart lyrics — he references both Brutus and Möbius strip — are delivered with dexterity. "If seeing's believing, I think I’m diluted/I mean dilated/I mean belated/Man, I didn’t proof this/I practice aloofness."

He might be aloof, but that doesn't mean you have to keep your distance from Healy.



Tracklist:

01. Tungsten (0:57)
02. Everything's Fine (3:52)
03. Deep Cuts (3:42)
04. Nikes On (2:42)
05. Dead Sprint (1:44)
06. Second Wind (3:30)
07. Cannonball (3:16)
08. Molly (1:06)
09. Back on the Fence (3:51)
10. Immune (1:20)
11. Back in Time (3:18)
12. Part of Me (3:21)
13. Mirages (1:10)

foobar2000 1.4 / Dynamic Range Meter 1.1.1
log date: 2021-01-13 22:18:46

––––––––––––––––––––––––––––––––––––––––
Analyzed: Healy / Tungsten
––––––––––––––––––––––––––––––––––––––––

DR Peak RMS Duration Track
––––––––––––––––––––––––––––––––––––––––
DR17 -0.18 dB -20.92 dB 0:57 01-Tungsten
DR5 -0.10 dB -8.70 dB 3:52 02-Everything's Fine
DR8 -0.10 dB -10.85 dB 3:42 03-Deep Cuts
DR4 0.00 dB -8.06 dB 2:42 04-Nikes On
DR9 -3.62 dB -16.51 dB 1:44 05-Dead Sprint
DR6 -0.10 dB -8.19 dB 3:30 06-Second Wind
DR7 -0.10 dB -9.98 dB 3:16 07-Cannonball
DR10 -3.82 dB -18.63 dB 1:06 08-Molly
DR5 -0.10 dB -8.48 dB 3:51 09-Back on the Fence
DR10 -0.01 dB -13.13 dB 1:20 10-Immune
DR7 -0.10 dB -8.92 dB 3:18 11-Back in Time
DR6 -0.10 dB -8.70 dB 3:21 12-Part of Me
DR9 -4.50 dB -17.48 dB 1:10 13-Mirages
––––––––––––––––––––––––––––––––––––––––

Number of tracks: 13
Official DR value: DR8

Samplerate: 44100 Hz
Channels: 2
Bits per sample: 24
Bitrate: 1276 kbps
Codec: FLAC
================================================================================



Thanks to the Original customer!