Tags
Language
Tags

Jane Weaver - Modern Kosmology (2017) [Official Digital Download 24/96]

Posted By: delpotro
Jane Weaver - Modern Kosmology (2017) [Official Digital Download 24/96]

Jane Weaver - Modern Kosmology (2017)
FLAC (tracks) 24-bit/96 kHz | Front Cover | Time - 43:50 minutes | 842 MB
Indie Rock, Art Pop, Neo-psychedelia, Female Vocal | Label: Fire Records, Official Digital Download

Modern Kosmology sees Jane Weaver's melodic-protagonist channeling new depths of creative cosmic energy within. After the huge critical acclaim of 2012's “Fallen By Watchbird”, followed by 2015's exploratory "Silver Globe" LP winning her unanimous "record of the year accolades" and hefty measures of radio play-listing Jane Weaver's conceptual trajectory has sent her neo-kosmische penchants to the point of no-return.

Jane Weaver's unwaning yearning for psychoactive pop energy has just reached a new level of magnetism. As snowclones go, Modern Kosmology is the new Silver. Another Spectrum to add to the tension.

Tracklist:
1. H>A>K (03:32)
2. Did You See Butterflies? (03:45)
3. Modern Kosmology (05:01)
4. Slow Motion (05:06)
5. Loops In The Secret Society (04:29)
6. The Architect (04:03)
7. The Lightning Back (03:38)
8. Valley (05:13)
9. Ravenspoint (04:38)
10. I Wish (04:25)

foobar2000 1.4.1 / Dynamic Range Meter 1.1.1
log date: 2021-01-12 12:51:25

––––––––––––––––––––––––––––––––––––––––
Analyzed: Jane Weaver / Modern Kosmology
––––––––––––––––––––––––––––––––––––––––

DR Peak RMS Duration Track
––––––––––––––––––––––––––––––––––––––––
DR11 -1.01 dB -13.50 dB 3:32 01-H>A>K
DR11 -1.01 dB -13.56 dB 3:45 02-Did You See Butterflies?
DR11 -1.01 dB -14.40 dB 5:01 03-Modern Kosmology
DR11 -1.01 dB -14.18 dB 5:06 04-Slow Motion
DR12 -1.01 dB -14.32 dB 4:29 05-Loops in the Secret Society
DR13 -1.01 dB -15.95 dB 4:03 06-The Architect
DR11 -2.16 dB -15.53 dB 3:38 07-The Lightning Back
DR10 -2.09 dB -15.23 dB 5:13 08-Valley
DR11 -1.01 dB -14.22 dB 4:38 09-Ravenspoint
DR12 -1.01 dB -15.23 dB 4:25 10-I Wish
––––––––––––––––––––––––––––––––––––––––

Number of tracks: 10
Official DR value: DR11

Samplerate: 96000 Hz
Channels: 2
Bits per sample: 24
Bitrate: 2689 kbps
Codec: FLAC
================================================================================


Thanks to the Original customer!