Tags
Language
Tags

jess joy - PATREEARCHY (2021) [Official Digital Download]

Posted By: delpotro
jess joy - PATREEARCHY (2021) [Official Digital Download]

jess joy - PATREEARCHY (2021)
FLAC (tracks) 24-bit/44,1 kHz | Front Cover | Time - 38:32 minutes | 425 MB
Indie Pop, Art Pop, Female Vocal | Label: Joyful Noise Recordings, Official Digital Download

jess joy (formerly of Moon Honey) is a multimedia artist based in the dreamy undercurrent of Los Angeles, hailing from the swamps of south Louisiana. In art school, guitarist Andrew Martin (Palaye Royale) commissioned her to paint a guitar amp, and a partnership flourished. Moon Honey toured the country, were lauded by the New York Times - “whirlwind virtuosity” - and NPR - “one of those voices cults form around”, played on KEXP, worked with producers John Goodmanson (Blonde Redhead, Sleater-Kinney) and Greg Saunier (Deerhoof) and went out with a bang.

In 2019, joy transitioned to solo artistry, preparing the cocoon for PATREEARCHY, produced by Greg Saunier. Known for her soaring warble and dazzling costumes, the trappings of joy’s art coalesce here into a gossamer creature of mystery, of twinkling strings, of dreams wrought in solar flares. “Bless your name” lurches and spins like a thought singing in the mirror. “her0” is lush as a Busby Berkely fever dream. “Thrashhold” in contrast, has joy baring her fangs in a scintillating jangle of undulating guitars. Joan Baez’s “silver dagger,” buffeted with longtime collaborator David Hinson on violin, is witch’s vow of freedom.

This sense of freedom is the radiant seed from PATREEARCHY blossoms. joy’s shows are immersive performance art experiences, given her practice in banshee-esque operatic vocals, mime, and creative set and costume design applauded by Bandsintown as “One-of-a-kind, show-stopping ensembles and incredible, handmade pieces.” Once the world is ready, so will be joy!

Tracklist:
1. bless your name (03:36)
2. her0 (03:25)
3. thrashold (02:14)
4. apple of his i (03:32)
5. well, i’ll be damned (06:14)
6. a love song (05:12)
7. silver dagger (03:26)
8. betwixt between (03:15)
9. this is the string (05:37)
10. permanent heaven (02:03)

foobar2000 1.4.1 / Dynamic Range Meter 1.1.1
log date: 2021-04-17 11:44:10

––––––––––––––––––––––––––––––––––––––––
Analyzed: jess joy / PATREEARCHY
––––––––––––––––––––––––––––––––––––––––

DR Peak RMS Duration Track
––––––––––––––––––––––––––––––––––––––––
DR7 0.00 dB -9.56 dB 3:36 01-bless your name
DR6 0.00 dB -8.56 dB 3:25 02-her0
DR8 0.00 dB -11.01 dB 2:14 03-thrashold
DR5 0.00 dB -9.40 dB 3:32 04-apple of his i
DR11 0.00 dB -14.01 dB 6:14 05-well, i’ll be damned
DR7 0.00 dB -9.58 dB 5:12 06-a love song
DR8 0.00 dB -12.26 dB 3:26 07-silver dagger
DR7 0.00 dB -9.21 dB 3:15 08-betwixt between
DR8 0.00 dB -10.80 dB 5:37 09-this is the string
DR7 0.00 dB -9.42 dB 2:03 10-permanent heaven
––––––––––––––––––––––––––––––––––––––––

Number of tracks: 10
Official DR value: DR7

Samplerate: 44100 Hz
Channels: 2
Bits per sample: 24
Bitrate: 1553 kbps
Codec: FLAC
================================================================================


Thanks to the Original customer!