Tags
Language
Tags

Kraftwerk - The Man-Machine (Remastered Vinyl) (1978/2020) [24bit/96kHz]

Posted By: delpotro
Kraftwerk - The Man-Machine (Remastered Vinyl) (1978/2020) [24bit/96kHz]

Kraftwerk - The Man-Machine (Remastered Vinyl) (1978/2020)
Vinyl Rip | FLAC (tracks) 24-bit/96 kHz | Time - 36:10 minutes | 679 MB | Artwork - 19 MB
Experimental Electronic, Synthpop, Krautrock | Label: Kling Klang

The Man-Machine (German: Die Mensch-Maschine) is the seventh studio album by German electronic music band Kraftwerk. It was released on 19 May 1978 by Kling Klang in Germany and by Capitol Records elsewhere. A further refinement of their mechanical style, the album saw the group incorporate more danceable rhythms and less minimalistic arrangements. It includes the singles "The Model" and "The Robots". Although the album was initially unsuccessful on the UK Albums Chart, it reached a new peak position of number nine in February 1982, becoming the band's second highest-peaking album in the United Kingdom after Autobahn (1974).

Tracklist:
A1 – The Robots
A2 – Spacelab
A3 – Metropolis
B1 – The Model
B2 – Neon Lights
B3 – The Man•Machine

foobar2000 1.4.1 / Dynamic Range Meter 1.1.1
log date: 2020-11-11 17:54:54

––––––––––––––––––––––––––––––––––––––––
Analyzed: Kraftwerk / The Man-Machine
––––––––––––––––––––––––––––––––––––––––

DR Peak RMS Duration Track
––––––––––––––––––––––––––––––––––––––––
DR13 -0.21 dB -15.52 dB 6:14 01-The Robots
DR13 -0.01 dB -15.26 dB 5:56 02-Spacelab
DR14 -0.71 dB -16.91 dB 5:59 03-Metropolis
DR12 -1.05 dB -15.21 dB 3:40 04-The Model
DR16 -0.38 dB -18.30 dB 8:50 05-Neon Lights
DR14 -1.29 dB -17.31 dB 5:32 06-The Man-Machine
––––––––––––––––––––––––––––––––––––––––

Number of tracks: 6
Official DR value: DR14

Samplerate: 96000 Hz
Channels: 2
Bits per sample: 24
Bitrate: 2539 kbps
Codec: FLAC
================================================================================


Vinyl Class: Ex
Turntable: Sherwood PM-9901
catridge: Audio-Technica AT 311 EP
EMU 1616m
Manual de-clicking
Ripped 24/96

Thanks to the Original customer!