Tags
Language
Tags

Leon Vynehall - Rare, Forever (2021) [Official Digital Download]

Posted By: delpotro
Leon Vynehall - Rare, Forever (2021) [Official Digital Download]

Leon Vynehall - Rare, Forever (2021)
FLAC (tracks) 24-bit/44,1 kHz | Front Cover | Time - 37:35 minutes | 432 MB
Electronic, House, Techno | Label: Ninja Tune, Official Digital Download

Leon Vynehall returns with new album Rare Forever, the follow up to 2018's critically acclaimed debut Nothing Is Still. Rare, Forever will feel familiar for fans of Vynehall’s DJ-Kicks mix or his eclectic excursions on NTS, while simultaneously sounding unlike anything he’s ever done before. As much as there are dancefloor memories and moments, it’s not strictly a dance record — instead, Rare, Forever is the clearest representation of the broad spectrum of music he’s made to date, deftly weaving newer shades of post-punk, ambient, techno and drone.

Tracklist:
1. Ecce! Ego! (03:33)
2. In>Pin (00:58)
3. Mothra (05:39)
4. Alichea Vella Amor (03:43)
5. Snakeskin ∞ Has-Been (04:36)
6. Worm (& Closer & Closer) (02:19)
7. An Exhale (04:22)
8. Dumbo (05:10)
9. Farewell! Magnus Gabbro (04:32)
10. All I See Is You, Velvet Brown (02:39)

foobar2000 1.4.1 / Dynamic Range Meter 1.1.1
log date: 2021-04-30 02:38:40

––––––––––––––––––––––––––––––––––––––––
Analyzed: Leon Vynehall / Rare, Forever
––––––––––––––––––––––––––––––––––––––––

DR Peak RMS Duration Track
––––––––––––––––––––––––––––––––––––––––
DR6 -0.30 dB -9.12 dB 3:33 01-Ecce! Ego!
DR5 -0.30 dB -9.56 dB 0:59 02-In>Pin
DR5 -0.30 dB -8.55 dB 5:39 03-Mothra
DR8 -0.30 dB -10.32 dB 3:43 04-Alichea Vella Amor
DR6 -0.30 dB -9.57 dB 4:36 05-Snakeskin ∞ Has-Been
DR8 -0.30 dB -10.29 dB 2:20 06-Worm (& Closer & Closer)
DR5 -0.30 dB -7.75 dB 4:23 07-An Exhale
DR6 -0.30 dB -8.79 dB 5:11 08-Dumbo
DR7 -0.30 dB -9.37 dB 4:32 09-Farewell! Magnus Gabbro
DR6 -0.30 dB -8.87 dB 2:39 10-All I See Is You, Velvet Brown
––––––––––––––––––––––––––––––––––––––––

Number of tracks: 10
Official DR value: DR6

Samplerate: 44100 Hz
Channels: 2
Bits per sample: 24
Bitrate: 1446 kbps
Codec: FLAC
================================================================================


Thanks to the Original customer!