Miles Davis - Double Image: Rare Miles From The Complete Bitches Brew Sessions (RSD 2020 Vinyl) (2020) [24bit/96kHz]

Posted By: delpotro
Miles Davis - Double Image: Rare Miles From The Complete Bitches Brew Sessions (RSD 2020 Vinyl) (2020) [24bit/96kHz]

Miles Davis - Double Image: Rare Miles From The Complete Bitches Brew Sessions (RSD 2020 Vinyl) (2020)
Vinyl Rip | FLAC (tracks) 24-bit/96 kHz | Front Cover | Time - 95:17 minutes | 1,89 GB
Jazz Fusion | Label: Columbia Records

Half a century on from its release, shockwaves from Miles Davis’ Bitches Brew continue to reverberate throughout the universe. Leading more than a dozen all-stars in the studio (including Wayne Shorter on soprano sax, John McLaughlin on electric guitar and a triple-threat electric piano section featuring Joe Zawinul, Chick Corea and Larry Young), Miles defied all conventional styles, joining the loose ends of jazz, rock and funk into a groundbreaking new sound that would eventually become known quite plainly as fusion. This double album, featuring ten embryonic recordings which paved the way for the final album, is issued for the first time as a standalone release on opaque red vinyl for Record Store Day 2020.

Tracklist:
A1 – Yaphet (09:39)
A2 – Corrado (13:12)
B1 – The Little Blue Frog (Master) (09:10)
B2 – Trevere (05:55)
B3 – The Little Blue Frog (Alternate Take) (12:13)
C1 – Double Image (First Version) (08:25)
C2 – Feio (11:49)
C3 – The Big Green Serpent (03:35)
D1 – Recollections (18:55)
D2 – Take It Or Leave It (02:13)

foobar2000 1.4.1 / Dynamic Range Meter 1.1.1
log date: 2021-01-12 13:07:54

––––––––––––––––––––––––––––––––––––––––
Analyzed: Miles Davis / Double Image: Rare Miles from the Complete Bitches Brew Sessions
––––––––––––––––––––––––––––––––––––––––

DR Peak RMS Duration Track
––––––––––––––––––––––––––––––––––––––––
DR11 -0.05 dB -14.90 dB 9:39 01-Yaphet
DR11 -0.08 dB -14.07 dB 13:12 02-Corrado
DR12 -4.63 dB -20.04 dB 9:12 03-The Little Blue Frog (Master)
DR11 -1.94 dB -16.92 dB 5:58 04-Trevere
DR11 -2.73 dB -16.84 dB 12:13 05-The Little Blue Frog (Alternate Take)
DR12 -1.38 dB -15.51 dB 8:27 06-Double Image (First Version)
DR13 -2.57 dB -18.57 dB 11:50 07-Feio
DR12 -3.37 dB -21.85 dB 3:35 08-The Big Green Serpent
DR12 -1.22 dB -18.15 dB 18:56 09-Recollections
DR14 -2.24 dB -20.31 dB 2:14 10-Take It or Leave It
––––––––––––––––––––––––––––––––––––––––

Number of tracks: 10
Official DR value: DR12

Samplerate: 96000 Hz
Channels: 2
Bits per sample: 24
Bitrate: 2668 kbps
Codec: FLAC
================================================================================


Recorded 2020/12/8 from mint copy

Pro-Ject VC-E record cleaner
Audio Technica ART9
Pro-Ject The Classic w/EVO subplatter upgrade
Musical Surroundings Nova II
Focusrite Scarlett 2i2

iZotope RX6: manual de-click + gain (no normalization)

Thanks to the Original customer!