Tags
Language
Tags

Nicole Mitchell & Moor Mother - Offering: Live at Le Guess Who (2020) [Official Digital Download 24/48]

Posted By: delpotro
Nicole Mitchell & Moor Mother - Offering: Live at Le Guess Who (2020) [Official Digital Download 24/48]

Nicole Mitchell & Moor Mother - Offering: Live at Le Guess Who (2020)
FLAC (tracks) 24-bit/48 kHz | Front Cover | Time - 45:18 minutes | 452 MB
Experimental Electronic, Ambient, Spoken Word | Label: Don Giovanni Records, Official Digital Download

Shimmering columns of light will guide you, a grand synesthesia riding on a kaleidoscope, oscillating between hushed moments, where sound unfolds the firmament, unfurled like a cloak upon the shoulders of the real world. Listen: this is not a “track”, a circular appendage looped around a spindle and activated by some muscular stone on stylus. Too many people bled for the diamond there, too many questions remain trapped in the groove. What to do then, besides move the listener beyond the traps of expected sonics and into a menagerie, away from the strange hook of the promise of shelf-space or the obsessive atonal drone of, in fact, obsession? Here it is: live on wax, as it were, a breathing, living thing, pulsating on its own, lifting into the ether to announce itself, to nestle into the crevices of your dusty IKEA storage units. Move this mysticism in!

There is a traditional, ancient magic embedded in the dusty spaces surrounding Moor Mother's afro-retrofuturist tech-jazz, amongst the noise emblazoned with phoenix fire screeds. She is an Orisha willing to embrace a foreboding cyberpunk narrative informed by Born In Flames and Space is the Place, if it will free you, the traveller, the future mystic, from a carbon-rusted sheath, so that you, a sword on fire, may burn. “How do we get it back?” Empowering these ideas are dream drones, ghosts on soundwaves burst through her instruments like a poltergeist– Nicole Mitchell conjures at her cauldron, uninhibited by the specter of spectacle, by the post-academia, five-stars-and-an-Eventbrite-link-industrial complex.

“See the vultures laughing? See the hawk circling? Have you been walking around with open eyes?” they say here, in a song. These are whispered bombs under the breath of a gamelan, an accoustic soundsystem– pleading, longing, for your specific liberation. Make a home for this magic!

Traveler, spirit, sage– your hand holds the physical, time-stamped documentation of the first collaboration between two mystics, the inimitable poet and noise musician Moor Mother and the indefatigable flautist and composer Nicole Mitchell. These two artists, diviners truthfully, spent a few years basking in the sun-spilled glow of each other's radiance from a distance before colliding and colluding musically at the Moor Mother curated Le Guess Who Festival in Utrech, the Netherlands in 2018. That is the performance captured here, then chip-tagged, cataloged and released into the wild. - Alex Smith

Tracklist:
1. Up Out Of The Ugly (17:14)
2. Vultures Laughing (06:08)
3. Prototype Eve (21:57)

foobar2000 1.4.1 / Dynamic Range Meter 1.1.1
log date: 2021-05-12 15:35:13

––––––––––––––––––––––––––––––––––––––––
Analyzed: Nicole Mitchell and Moor Mother / Offering: Live at Le Guess Who
––––––––––––––––––––––––––––––––––––––––

DR Peak RMS Duration Track
––––––––––––––––––––––––––––––––––––––––
DR10 -2.17 dB -18.51 dB 17:14 01-Up Out of the Ugly
DR10 -0.95 dB -14.94 dB 6:08 02-Vultures Laughing
DR10 -0.13 dB -16.51 dB 21:57 03-Prototype Eve
––––––––––––––––––––––––––––––––––––––––

Number of tracks: 3
Official DR value: DR10

Samplerate: 48000 Hz
Channels: 2
Bits per sample: 24
Bitrate: 1394 kbps
Codec: FLAC
================================================================================


Thanks to the Original customer!