Tags
Language
Tags

Sólstafir - Endless Twilight of Codependent Love (2020) [Official Digital Download 24/48]

Posted By:
Sólstafir - Endless Twilight of Codependent Love (2020) [Official Digital Download 24/48]

Sólstafir - Endless Twilight of Codependent Love (2020)
FLAC (tracks) 24-bit/48 kHz | Front Cover | Time - 63:00 minutes | 745 MB
Progressive Rock, Post-Rock, Post-Metal | Label: Season Of Mist, Official Digital Download

Music will always be inspired by the environment in which it is created. With its incredible array of highly diverse landscapes ranging from white glaciers via volcanic bizarreness, moss-green bubble-fields, deep fjords, and frost-cracked mountains to black beaches, Iceland has shaped a host of astonishingly original in SÓLSTAFIR. More than ever, SÓLSTAFIR’s new opus ‘Endless Twilight of Codependent Love’ highlights the contrasting influences that have inspired the band over the years. Whether you’re listening to the black metal infused “Dionysus”, “Her Fall From Grace”, the gracious song “Til Modar” or a straightforward SÓLSTAFIR masterpiece “Akkeri”, the Icelanders have mastered all these elements and blended it seamlessly into one record.

Tracklist:
1. Akkeri (10:10)
2. Drýsill (08:52)
3. Rökkur (07:06)
4. Her Fall from Grace (06:35)
5. Dionysus (05:30)
6. Til Moldar (04:28)
7. Alda Syndanna (04:30)
8. Ör (06:57)
9. Úlfur (08:48)

foobar2000 1.4.1 / Dynamic Range Meter 1.1.1
log date: 2020-11-06 12:36:10

––––––––––––––––––––––––––––––––––––––––
Analyzed: Sólstafir / Endless Twilight of Codependent Love
––––––––––––––––––––––––––––––––––––––––

DR Peak RMS Duration Track
––––––––––––––––––––––––––––––––––––––––
DR6 -0.20 dB -8.81 dB 10:10 01-Akkeri
DR5 -0.20 dB -6.96 dB 8:52 02-Drýsill
DR5 -0.20 dB -6.93 dB 7:06 03-Rökkur
DR4 -0.20 dB -5.97 dB 6:36 04-Her Fall from Grace
DR6 -0.20 dB -7.41 dB 5:31 05-Dionysus
DR6 -0.20 dB -9.67 dB 4:29 06-Til Moldar
DR6 -0.20 dB -7.86 dB 4:30 07-Alda Syndanna
DR5 -0.20 dB -8.08 dB 6:58 08-Ör
DR6 -0.20 dB -7.20 dB 8:49 09-Úlfur
––––––––––––––––––––––––––––––––––––––––

Number of tracks: 9
Official DR value: DR6

Samplerate: 48000 Hz
Channels: 2
Bits per sample: 24
Bitrate: 1663 kbps
Codec: FLAC
================================================================================


Thanks to the Original customer!