Tags
Language
Tags

Sweet Trip - A Tiny House, In Secret Speeches, Polar Equals (2021) [Official Digital Download]

Posted By: delpotro
Sweet Trip - A Tiny House, In Secret Speeches, Polar Equals (2021) [Official Digital Download]

Sweet Trip - A Tiny House, In Secret Speeches, Polar Equals (2021)
FLAC (tracks) 24-bit/44,1 kHz | Front Cover | Time - 69:35 minutes | 763 MB
Dreampop, Shoegaze, Electronic, IDM | Label: Darla Records, Official Digital Download

A Tiny House, In Secret Speeches, Polar Equals marks the return of Sweet Trip, 12 years after the release of their third album, You Will Never Know Why. In usual Sweet Trip fashion, "Secret Speeches" was created out of the blue; nothing planned, not even a sense of direction. Instead, songs poured out with strong emotions and pure love, which dictated every note, every beat, every wash of sounds that adorns this new work.

In A Tiny House, In Secret Speeches, Polar Equals, Valerie and Roby have taken lessons learned from previous works: lush soundscapes reminiscent of Halica, strange digital manipulation and sound overload of velocity:design:comfort, the pop sensibility of You Will Never Know Why and have created something that stands on its own - a collection of love songs, ethereal slow jams, blissed out sexy grooves, a love letter in music and sound. "Secret Speeches" gives you a Sweet Trip that embraces their maturity, and still keeps things intriguing and unexpected.

Tracklist:
1. Tiny Houses (05:52)
2. Surviving a Smile (05:25)
3. The Weight of Comfort, This Rain is Comfort, This Rain is You (03:29)
4. In Sound, We Found Each Other (05:07)
5. Chapters (05:36)
6. Eave Foolery Mill Five (07:26)
7. Snow Purple Treasures (06:28)
8. Come Spend the Night (02:50)
9. Randfilt (03:50)
10. You (05:08)
11. Walkers Beware! We Drive into the Sun (03:41)
12. Zafire Melts the Heart in Modulation (01:58)
13. Polar Equals (06:38)
14. At Last a Truth That is Real (06:02)

foobar2000 1.4.1 / Dynamic Range Meter 1.1.1
log date: 2021-06-13 15:02:38

––––––––––––––––––––––––––––––––––––––––
Analyzed: Sweet Trip / A Tiny House, In Secret Speeches, Polar Equals
––––––––––––––––––––––––––––––––––––––––

DR Peak RMS Duration Track
––––––––––––––––––––––––––––––––––––––––
DR8 -0.30 dB -11.53 dB 5:53 01-Tiny Houses
DR8 -0.31 dB -11.13 dB 5:26 02-Surviving a Smile
DR7 -0.31 dB -9.44 dB 3:29 03-The Weight of Comfort, This Rain is Comfort, This Rain is You
DR8 -0.31 dB -12.30 dB 5:08 04-In Sound, We Found Each Other
DR7 -0.30 dB -10.32 dB 5:36 05-Chapters
DR8 -0.31 dB -11.48 dB 7:27 06-Eave Foolery Mill Five
DR10 -0.30 dB -13.65 dB 6:28 07-Snow Purple Treasures
DR8 -0.31 dB -10.93 dB 2:50 08-Come Spend the Night
DR9 -0.30 dB -14.08 dB 3:50 09-Randfilt
DR8 -0.31 dB -11.58 dB 5:08 10-You
DR8 -0.31 dB -10.52 dB 3:41 11-Walkers Beware! We Drive into the Sun
DR8 -4.30 dB -13.72 dB 1:58 12-Zafire Melts the Heart in Modulation
DR7 -0.30 dB -10.44 dB 6:39 13-Polar Equals
DR7 -0.30 dB -11.25 dB 6:02 14-At Last a Truth That is Real
––––––––––––––––––––––––––––––––––––––––

Number of tracks: 14
Official DR value: DR8

Samplerate: 44100 Hz
Channels: 2
Bits per sample: 24
Bitrate: 1563 kbps
Codec: FLAC
================================================================================


Thanks to the Original customer!