The Nashville String Band - Identified! (2021) [Official Digital Download 24/192]

Posted By: El Misha
The Nashville String Band - Identified! (2021) [Official Digital Download 24/192]

The Nashville String Band - Identified! (1971/2021)
FLAC (tracks) 24-bit/192.0 kHz | Time - 25:02 | 1.06 GB
Studio Master, Official Digital Download | Artwork: Front cover

The Nashville String Band made six records between 1969 and 1972, featuring Chet Atkins and the musical comedy team of Homer & Jethro with a group of Nashville session musicians. The ten instrumentals range from the very familiar "Colonel Bogey March" (easily recognized by fans of the film The Bridge on the River Kwai) to "Rocky Top," "Red Wing" (a favorite of musical comedy great Spike Jones in the 1940s), and the tearjerker country ballad "Green, Green Grass of Home." Although the session is a tad overproduced with a stingy length of just 24 minutes, and it doesn't sufficiently focus on the solo capabilities of each man, this long out of print RCA LP still has great appeal. One reason is the priceless album jacket, with the three players as gun-wielding masked bandits on the front cover, and smiling unmasked with their instruments in place of guns on the back.



Tracklist:

01. Colonel Bogey (2:15)
02. White Silver Sands (2:32)
03. Red Wings (2:26)
04. The Three Bells (2:39)
05. Oklahoma Hills (2:27)
06. Strollin' (2:10)
07. Sweet Dreams (2:18)
08. Rocky Top (2:42)
09. Release Me (And Let Me Love Again) (2:55)
10. Green, Green Grass of Home (2:38)

foobar2000 1.4 / Dynamic Range Meter 1.1.1
log date: 2021-06-23 10:29:54

––––––––––––––––––––––––––––––––––––––––
Analyzed: The Nashville String Band / Identified
––––––––––––––––––––––––––––––––––––––––

DR Peak RMS Duration Track
––––––––––––––––––––––––––––––––––––––––
DR12 -0.05 dB -15.44 dB 2:15 01-Colonel Bogey
DR11 -0.05 dB -14.01 dB 2:32 02-White Silver Sands
DR10 -0.70 dB -13.08 dB 2:27 03-Red Wings
DR11 -1.30 dB -15.28 dB 2:40 04-The Three Bells
DR10 -1.06 dB -14.18 dB 2:27 05-Oklahoma Hills
DR11 -0.05 dB -13.47 dB 2:10 06-Strollin'
DR11 -0.09 dB -13.83 dB 2:18 07-Sweet Dreams
DR11 -1.04 dB -14.18 dB 2:43 08-Rocky Top
DR12 -0.05 dB -14.78 dB 2:56 09-Release Me (And Let Me Love Again)
DR11 -1.44 dB -15.38 dB 2:39 10-Green, Green Grass of Home
––––––––––––––––––––––––––––––––––––––––

Number of tracks: 10
Official DR value: DR11

Samplerate: 192000 Hz
Channels: 2
Bits per sample: 24
Bitrate: 6032 kbps
Codec: FLAC
================================================================================



Thanks to the Original customer!