The Nashville String Band - The Nashville String Band (1969) [Official Digital Download 24/192]

Posted By: El Misha
The Nashville String Band - The Nashville String Band (1969) [Official Digital Download 24/192]

The Nashville String Band - The Nashville String Band (1969)
FLAC (tracks) 24-bit/192.0 kHz | Time - 28:50 | 1.13 GB
Studio Master, Official Digital Download | Artwork: Front cover

The Nashville String Band is the 1969 debut album by The Nashville String Band. The band consisted of Chet Atkins and Homer and Jethro. Atkins produced many of Homer and Jethro's later RCA albums and they in turn performed on a number of his.
They released six albums on the RCA label.

Get ready for a romp in a whole new world. Lay aside all previous notions you may have had of what Nashville music is all about and step into the bright new world of The Nashville String Band. With this album you are present at the sparkling moment of creation of an even newer "Nashville Sound.”
Some of the world's best stringed instrument players— "pickers,” if you will—have created it for you. The pickers heard here wear many hats, but they share one thing in common : their expertise with stringed instruments. Each of the players is recognized as master of his instrument, be it mandolin, lead guitar or rhythm guitar. They can double easily on the sitar or any of a dozen other stringed instruments.
Most of all, they bring heady, new arrangements to great favorites from the world's musical ménage. Here is Yellow Bird in its most brilliant plumage yet. The beautiful, tiled city of Granada never shone more brightly, and La Golondrina, the swallow, never soared to such heights!
Byron William's greatest work, La Fiesta, is imbued with life and luster.
The great country-music standards El Paso, Adios Amigos and Caribbean have seldom been treated to such compassionate and understanding technique.
Most of these songs were born of the folk tradition of the countries of their origin. One was written by a wandering street musician. Perhaps it is only logical that they receive their most sympathetic treatment from The Nashville String Band—itself rooted in the folk tradition of America.



Tracklist:

01. The Nashville String Band - La Fiesta (02:33)
02. The Nashville String Band - Yellow Bird (03:20)
03. The Nashville String Band - El Paso (02:51)
04. The Nashville String Band - Granada (02:54)
05. The Nashville String Band - Adios Amigos (02:30)
06. The Nashville String Band - La Golondrina (01:55)
07. The Nashville String Band - Caribbean (02:26)
08. The Nashville String Band - Tomorrow's Tears (Morir Un Poco) (02:10)
09. The Nashville String Band - Maria Elena (03:21)
10. The Nashville String Band - Drina (02:36)
11. The Nashville String Band - In a Little Spanish Town (02:14)

foobar2000 1.4 / Dynamic Range Meter 1.1.1
log date: 2021-06-21 07:22:15

––––––––––––––––––––––––––––––––––––––––
Analyzed: The Nashville String Band / The Nashville String Band
––––––––––––––––––––––––––––––––––––––––

DR Peak RMS Duration Track
––––––––––––––––––––––––––––––––––––––––
DR11 -0.02 dB -12.85 dB 2:34 01-La Fiesta
DR10 -0.02 dB -12.47 dB 3:20 02-Yellow Bird
DR10 -0.02 dB -12.17 dB 2:51 03-El Paso
DR10 -0.02 dB -11.98 dB 2:54 04-Granada
DR11 -0.02 dB -12.95 dB 2:30 05-Adios Amigos
DR10 -0.02 dB -12.04 dB 1:55 06-La Golondrina
DR10 -0.29 dB -12.14 dB 2:26 07-Caribbean
DR11 -0.02 dB -12.50 dB 2:11 08-Tomorrow's Tears (Morir Un Poco)
DR9 -1.01 dB -12.84 dB 3:21 09-Maria Elena
DR12 -0.02 dB -13.41 dB 2:37 10-Drina
DR11 -0.02 dB -13.03 dB 2:14 11-In a Little Spanish Town
––––––––––––––––––––––––––––––––––––––––

Number of tracks: 11
Official DR value: DR10

Samplerate: 192000 Hz
Channels: 2
Bits per sample: 24
Bitrate: 5594 kbps
Codec: FLAC
================================================================================



Thanks to the Original customer!