The Antlers - Green to Gold (2021) [Official Digital Download 24/88.2]

Posted By: shamanicus
The Antlers - Green to Gold (2021) [Official Digital Download 24/88.2]

The Antlers - Green to Gold (2021)
FLAC (tracks) 24-bit/88.2 kHz | 47:11 | 983 mb
Studio Master, Official Digital Download | Artwork: front cover

It begins with a hypnotic drum loop leading us into a haunting guitar & the cool echoing voice of Peter Silberman. Speaking on the title track for the new album from the Antlers, Silberman states, “The song is a long contemplation of the passage of time, but with the personal events and judgments omitted. Just a description of what is.” Conceived & written almost entirely in the morning hours, Green To Gold is the band’s first new music in nearly seven years and is easily their most luminous to date.

Tracklist:

01. Strawflower
02. Wheels Roll Home
03. Solstice
04. Stubborn Man
05. Just One Sec
06. It Is What It Is
07. Volunteer
08. Green to Gold
09. Porchlight
10. Equinox


foobar2000 1.4 / Dynamic Range Meter 1.1.1
log date: 2021-03-26 22:59:24

––––––––––––––––––––––––––––––––––––––––
Analyzed: The Antlers / Green to Gold
––––––––––––––––––––––––––––––––––––––––

DR Peak RMS Duration Track
––––––––––––––––––––––––––––––––––––––––
DR8 -0.32 dB -12.85 dB 3:55 01-Strawflower
DR7 -0.31 dB -11.05 dB 4:25 02-Wheels Roll Home
DR6 -0.31 dB -9.52 dB 3:55 03-Solstice
DR7 -0.31 dB -11.00 dB 5:51 04-Stubborn Man
DR7 -0.32 dB -10.95 dB 4:50 05-Just One Sec
DR8 -0.31 dB -10.90 dB 3:58 06-It Is What It Is
DR7 -0.31 dB -11.58 dB 5:55 07-Volunteer
DR7 -0.31 dB -10.24 dB 7:16 08-Green to Gold
DR8 -0.31 dB -11.73 dB 4:12 09-Porchlight
DR10 -0.32 dB -13.71 dB 2:53 10-Equinox
––––––––––––––––––––––––––––––––––––––––

Number of tracks: 10
Official DR value: DR8

Samplerate: 88200 Hz
Channels: 2
Bits per sample: 24
Bitrate: 2737 kbps
Codec: FLAC
================================================================================




Thanks to the Original customer.