Tags
Language
Tags

The Kinks - Percy (1971/2021) (50th Anniversary Remastered, 2021 RSD Vinyl) [24bit/96kHz]

Posted By: delpotro
The Kinks - Percy (1971/2021) (50th Anniversary Remastered, 2021 RSD Vinyl) [24bit/96kHz]

The Kinks - Percy (1971/2021) (50th Anniversary Remastered, 2021 RSD Vinyl)
Vinyl Rip | FLAC (tracks) 24-bit/96 kHz | Front Cover | Time - 33:07 minutes | 619 MB
Classic Rock, Pop Rock, Soundtrack | Label: BMG Rights Management

Limited edition remastered 50th anniversary picture disc release of the 1971 British comedy film soundtrack album. Performed by THE KINKS with additional orchestral arrangements by Stanley Myers. Their ninth official studio album and last on the PYE label. Previously unreleased in the USA, and the first vinyl re-press in twenty years.

Tracklist:
A1 – God's Children
A2 – Lola
A3 – The Way Love Used To Be
A4 – Completely
A5 – Running Round Town
A6 – Moments
B1 – Animals In The Zoo
B2 – Just Friends
B3 – Whip Lady
B4 – Dreams
B5 – Helga
B6 – Willesden Green
B7 – God's Children - End

foobar2000 1.4.1 / Dynamic Range Meter 1.1.1
log date: 2021-06-27 01:45:15

––––––––––––––––––––––––––––––––––––––––
Analyzed: The Kinks / Percy
––––––––––––––––––––––––––––––––––––––––

DR Peak RMS Duration Track
––––––––––––––––––––––––––––––––––––––––
DR11 -2.50 dB -16.74 dB 3:20 01-God's Children
DR13 -0.13 dB -16.63 dB 4:47 02-Lola
DR11 -5.59 dB -19.52 dB 2:16 03-The Way Love Used To Be
DR13 0.00 dB -16.32 dB 3:42 04-Completely
DR11 -3.89 dB -18.23 dB 1:07 05-Running Round Town
DR13 -1.55 dB -17.20 dB 2:55 06-Moments
DR13 0.00 dB -15.69 dB 2:23 07-Animals In The Zoo
DR12 -4.14 dB -19.93 dB 2:38 08-Just Friends
DR14 -1.51 dB -20.48 dB 1:23 09-Whip Lady
DR12 -2.54 dB -17.35 dB 3:46 10-Dreams
DR13 -1.00 dB -17.68 dB 1:57 11-Helga
DR13 -1.12 dB -16.53 dB 2:28 12-Willesden Green
DR12 -5.08 dB -20.81 dB 0:28 13-God's Children - End
––––––––––––––––––––––––––––––––––––––––

Number of tracks: 13
Official DR value: DR12

Samplerate: 96000 Hz
Channels: 2
Bits per sample: 24
Bitrate: 2243 kbps
Codec: FLAC
================================================================================


Cleaned with a Record Doctor V system.

Turntable: Technics SL-1500c
Cartridge: Orotofon Bronze
Phone Stage: Built-in Tecnhnics Phono
Digital Interface: Focusrite Audio Interface 2i2
Recording Software: Audacity
Recording Bitrate/Sample Rate: 192/24
Exported to 32 bit float WAV


Post Processing
Run thru ClickRepair at level 10 with
Pitch Protection | on
Reverse | on
Wavelet | x2
Run thru ClickRepair again level 10 with
Pitch Protection | on
Reverse | off
Wavelet | x2

Thanks to the Original customer!