The Mars Volta - La Realidad De Los Sueños (Remastered Vinyl Box Set) (2021) [24bit/96kHz]

Posted By: delpotro
The Mars Volta - La Realidad De Los Sueños (Remastered Vinyl Box Set) (2021) [24bit/96kHz]

The Mars Volta - La Realidad De Los Sueños (Remastered Vinyl Box Set) (2021)
Vinyl Rip | FLAC (tracks) 24-bit/96 kHz | Front Cover | Time - 488:19 minutes | 9,61 GB
Progressive Rock, Psychedelic Rock | Label: Clouds Hill Recordings

"La Realidad De Los Sueños" is literally "the reality of dreams" for the numerous The Mars Volta fans all around the world. It not only contains the band's whole studio discography but also some true treasures like "Landscape Tantrums", unreleased material from the De-Loused In The Comatorium sessions.

The 18 LP set is limited to 5.000 copies, pressed on black vinyl and comes with a characteristic and The Mars Volta-esque designed box. Rack included and ready-made for a perfect presentation.

Including the studio EPs / albums:
- Tremulant
- De-Loused In The Comatorium
- Frances The Mute
- Amputechture
- The Bedlam In Goliath
- Octahedron
- Noctourniquet

The unfinished original recordings of De-Loused In The Comatorium:
- Landscape Tantrums

The unreleased versions from the De-Loused In The Comatorium session:
- A Plague Upon Your Hissing Children
- Eunuch Provocateur

Tracklist:
A1 – Cut That City (05:44)
A2 – Concertina (04:54)
B – Eunuch Provocateur (08:48)
C1 – Son Et Lumière (01:35)
C2 – Inertiatic ESP (04:23)
C3 – Roulette Dares (The Haunt Of) (07:30)
D1 – Tira Me A Las Arañas (01:28)
D2 – Drunkship Of Lanterns (07:05)
D3 – Eriatarka (06:20)
E1 – Cicatriz ESP (12:28)
E2 – This Apparatus Must Be Unearthed (04:57)
F1 – Televators (06:18)
F2 – Take The Veil Cerpin Taxt (08:41)
G2 – The Widow (05:50)
H – L’Via L’Viaquez (12:21)
Ia – Vade Mecum
Ib – Pour Another Icepick
Ic – Pisacis (Phra-Men-Ma)
Id – Con Safo
Ja – Tarantism
Jb – Plant A Nail In The Navel Stream
Jc – Famine Pulse
Ka – Famine Pulse
Kb – Multiple Spouse Wounds
Kc – Sarcophagi
L1 – Vicarious Atonement (07:19)
L2 – Tetragrammaton (16:41)
M1 – Vermicide (04:16)
M2 – Meccamputechture (11:03)
N1 – Asilos Magdalena (06:34)
N2 – Viscera Eyes (09:23)
O1 – Day Of The Baphomets (11:57)
O2 – El Ciervo Vulnerado (08:50)
P1 – Aberinkula (05:45)
P2 – Metatron (08:12)
P3 – Ilyena (05:36)
Q1 – Wax Simulacra (02:39)
Q2 – Goliath (07:15)
Q3 – Tourniquet Man (02:38)
Q4 – Cavalettas (09:32)
R1 – Agadez (06:44)
R2 – Askepios (05:11)
R3 – Ouroborous (06:36)
S1 – Soothsayer (09:08)
S2 – Conjugal Burns (06:36)
T – Mr. Muggs (03:15)
U – Mr. Muggs (03:15)
V1 – Since We’ve Been Wrong (07:22)
V2 – Teflon (05:06)
W1 – Halo Of Nembutals (05:32)
W2 – With Twilight As My Guide (07:54)
X1 – Cotopaxi (03:40)
X2 – Desperate Graves (04:58)
Y1 – Copernicus (07:24)
Y2 – Luciforms (08:22)
Z1 – The Whip Hand (04:49)
Z2 – Aegis (05:11)
Z3 – Dyslexicon (04:22)
AA1 – Empty Vessels Make The Loudest Sound (06:43)
AA2 – The Malkin Jewel (04:44)
AA3 – Lapochka (04:16)
AB1 – In Absentia (07:26)
AB2 – Imago (03:58)
AB3 – Molochwalker (03:33)
AB4 – Trinkets Pale Of Moon (04:25)
AC1 – Vedamalady (03:54)
AC2 – Nocturniquet (05:39)
AC3 – Zed And Two Naughts (05:36)
AD1 – Roulette Dares (The Haunt Of) (06:38)
AD2 – Son Et Lumière (02:18)
AD3 – Inertiatic ESP (03:58)
AD4 – Drunkship Of Lanterns (05:58)
AD5 – Eriatarka (05:35)
AE1 – This Apparatus Must Be Unearthed (04:38)
AE2 – Televators (04:56)
AE3 – Take The Veil Cerpin Taxt (12:32)
AF – Eunuch Provocateur (06:12)
AG – A Plague Upon Your Hissing Children (04:41)

foobar2000 1.4.1 / Dynamic Range Meter 1.1.1
log date: 2021-06-14 12:05:13

––––––––––––––––––––––––––––––––––––––––
Statistics for: 01-A Plague Upon Your Hissing Children
Number of samples: 26091000
Duration: 4:32
––––––––––––––––––––––––––––––––––––––––

Left Right

Peak Value: -0.57 dB –- -1.40 dB
Avg RMS: -15.77 dB –- -16.62 dB
DR channel: 11.98 dB –- 11.96 dB
––––––––––––––––––––––––––––––––––––––––

Official DR Value: DR12

Samplerate: 96000 Hz
Channels: 2
Bits per sample: 24
Bitrate: 2868 kbps
Codec: FLAC
================================================================================
foobar2000 1.4.1 / Dynamic Range Meter 1.1.1
log date: 2021-06-14 12:06:29

––––––––––––––––––––––––––––––––––––––––
Analyzed: The Mars Volta / La Realidad de los Sueños: Amputechture
––––––––––––––––––––––––––––––––––––––––

DR Peak RMS Duration Track
––––––––––––––––––––––––––––––––––––––––
DR11 -3.20 dB -17.90 dB 7:19 01-Vicarious Atonement
DR11 -1.69 dB -15.97 dB 16:49 02-Tetragrammaton
DR13 -0.66 dB -17.58 dB 4:16 03-Vermicide
DR12 -0.94 dB -15.94 dB 11:13 04-Meccamputechture
DR11 -3.55 dB -18.34 dB 6:35 05-Asilos Magdalena
DR11 -2.52 dB -16.60 dB 9:31 06-Viscera Eyes
DR11 -0.01 dB -13.34 dB 11:56 07-Day Of The Baphomets
DR10 -1.97 dB -16.03 dB 8:53 08-El Ciervo Vulnerado
––––––––––––––––––––––––––––––––––––––––

Number of tracks: 8
Official DR value: DR11

Samplerate: 96000 Hz
Channels: 2
Bits per sample: 24
Bitrate: 2644 kbps
Codec: FLAC
================================================================================

foobar2000 1.4.1 / Dynamic Range Meter 1.1.1
log date: 2021-06-14 12:20:05

––––––––––––––––––––––––––––––––––––––––
Analyzed: The Mars Volta / La Realidad de los Sueños: De-Loused In The Comatorium
––––––––––––––––––––––––––––––––––––––––

DR Peak RMS Duration Track
––––––––––––––––––––––––––––––––––––––––
DR15 -2.80 dB -23.73 dB 1:35 01-Son Et Lumière
DR11 -0.78 dB -15.20 dB 4:24 02-Inertiatic ESP
DR11 -1.49 dB -17.00 dB 7:31 03-Roulette Dares (The Haunt Of)
DR8 -4.93 dB -26.51 dB 1:29 04-Tira Me A Las Arañas
DR12 -0.34 dB -14.80 dB 7:06 05-Drunkship Of Lanterns
DR10 -0.99 dB -15.69 dB 6:21 06-Eriatarka
DR11 -1.14 dB -16.17 dB 12:29 07-Cicatriz ESP
DR11 -1.76 dB -15.50 dB 4:58 08-This Apparatus Must Be Unearthed
DR12 -1.49 dB -18.34 dB 6:19 09-Televators
DR11 -0.52 dB -15.55 dB 8:41 10-Take The Veil Cerpin Taxt
––––––––––––––––––––––––––––––––––––––––

Number of tracks: 10
Official DR value: DR11

Samplerate: 96000 Hz
Channels: 2
Bits per sample: 24
Bitrate: 2896 kbps
Codec: FLAC
================================================================================

foobar2000 1.4.1 / Dynamic Range Meter 1.1.1
log date: 2021-06-14 12:20:13

––––––––––––––––––––––––––––––––––––––––
Statistics for: 01-Eunuch Provocateur
Number of samples: 35870208
Duration: 6:14
––––––––––––––––––––––––––––––––––––––––

Left Right

Peak Value: -0.43 dB –- -1.46 dB
Avg RMS: -14.61 dB –- -15.81 dB
DR channel: 12.09 dB –- 12.15 dB
––––––––––––––––––––––––––––––––––––––––

Official DR Value: DR12

Samplerate: 96000 Hz
Channels: 2
Bits per sample: 24
Bitrate: 2805 kbps
Codec: FLAC
================================================================================
foobar2000 1.4.1 / Dynamic Range Meter 1.1.1
log date: 2021-06-14 12:22:02

––––––––––––––––––––––––––––––––––––––––
Analyzed: The Mars Volta / La Realidad de los Sueños: Frances The Mute
––––––––––––––––––––––––––––––––––––––––

DR Peak RMS Duration Track
––––––––––––––––––––––––––––––––––––––––
DR12 -0.97 dB -17.51 dB 13:02 01-Cygnus….Vismund Cygnus
DR11 -3.30 dB -17.50 dB 6:07 02-The Widow
DR12 -1.91 dB -17.27 dB 12:04 03-L'Via L'Viaquez
DR15 -1.17 dB -22.11 dB 13:09 04-Miranda That Ghost Just Isn't Holy Anymore
DR12 -1.53 dB -15.37 dB 15:08 05-Cassandra Gemini (Part 1)
DR12 -2.11 dB -17.47 dB 17:21 06-Cassandra Gemini (Part 2)
––––––––––––––––––––––––––––––––––––––––

Number of tracks: 6
Official DR value: DR12

Samplerate: 96000 Hz
Channels: 2
Bits per sample: 24
Bitrate: 2719 kbps
Codec: FLAC
================================================================================

foobar2000 1.4.1 / Dynamic Range Meter 1.1.1
log date: 2021-06-14 12:23:26

––––––––––––––––––––––––––––––––––––––––
Analyzed: The Mars Volta / La Realidad de los Sueños: Landscape Tantrums
––––––––––––––––––––––––––––––––––––––––

DR Peak RMS Duration Track
––––––––––––––––––––––––––––––––––––––––
DR12 -1.48 dB -16.28 dB 6:38 01-Roulette Dares (The Haunt Of)
DR17 -4.39 dB -24.75 dB 2:18 02-Son Et Lumière
DR13 -1.65 dB -17.19 dB 3:58 03-Inertiatic ESP
DR12 -2.93 dB -16.98 dB 5:57 04-Drunkship Of Lanterns
DR12 -2.67 dB -16.85 dB 5:34 05-Eriatarka
DR13 -1.28 dB -17.05 dB 4:35 06-This Apparatus Must Be Unearthed
DR15 -2.72 dB -21.47 dB 4:57 07-Televators
DR13 -2.49 dB -18.28 dB 12:31 08-Take The Veil Cerpin Taxt
––––––––––––––––––––––––––––––––––––––––

Number of tracks: 8
Official DR value: DR13

Samplerate: 96000 Hz
Channels: 2
Bits per sample: 24
Bitrate: 2784 kbps
Codec: FLAC
================================================================================

foobar2000 1.4.1 / Dynamic Range Meter 1.1.1
log date: 2021-06-14 12:24:24

––––––––––––––––––––––––––––––––––––––––
Analyzed: The Mars Volta / La Realidad de los Sueños: Noctourniquet
––––––––––––––––––––––––––––––––––––––––

DR Peak RMS Duration Track
––––––––––––––––––––––––––––––––––––––––
DR12 -1.49 dB -16.22 dB 4:49 01-The Whip Hand
DR12 -2.28 dB -15.85 dB 5:11 02-Aegis
DR11 -1.55 dB -13.75 dB 4:23 03-Dyslexicon
DR11 -0.61 dB -13.73 dB 6:46 04-Empty Vessels Make The Loudest Sound
DR10 -2.39 dB -14.66 dB 4:43 05-The Malkin Jewel
DR10 -2.31 dB -15.02 dB 4:13 06-Lapochka
DR11 -1.13 dB -15.02 dB 7:25 07-In Absentia
DR10 -1.01 dB -14.89 dB 3:57 08-Imago
DR11 -1.72 dB -14.02 dB 3:32 09-Molochwalker
DR10 -3.41 dB -17.53 dB 4:26 10-Trinkets Pale Of Moon
DR10 -2.06 dB -14.03 dB 3:54 11-Vedamalady
DR10 -1.93 dB -15.83 dB 5:38 12-Noctourniquet
DR11 -1.53 dB -15.78 dB 5:36 13-Zed And Two Naughts
––––––––––––––––––––––––––––––––––––––––

Number of tracks: 13
Official DR value: DR11

Samplerate: 96000 Hz
Channels: 2
Bits per sample: 24
Bitrate: 2868 kbps
Codec: FLAC
================================================================================

foobar2000 1.4.1 / Dynamic Range Meter 1.1.1
log date: 2021-06-14 12:25:01

––––––––––––––––––––––––––––––––––––––––
Analyzed: The Mars Volta / La Realidad de los Sueños: Octahedron
––––––––––––––––––––––––––––––––––––––––

DR Peak RMS Duration Track
––––––––––––––––––––––––––––––––––––––––
DR12 -2.26 dB -21.09 dB 7:17 01-Since We've Been Wrong
DR13 -2.36 dB -17.22 dB 5:05 02-Teflon
DR12 -1.08 dB -16.55 dB 5:41 03-Halo Of Nembutals
DR11 -3.40 dB -18.20 dB 7:55 04-With Twilight As My Guide
DR12 -1.07 dB -14.92 dB 3:38 05-Cotopaxi
DR12 -1.90 dB -17.76 dB 4:55 06-Desperate Graves
DR12 -3.79 dB -20.37 dB 7:23 07-Copernicus
DR12 -2.26 dB -18.53 dB 8:18 08-Luciforms
––––––––––––––––––––––––––––––––––––––––

Number of tracks: 8
Official DR value: DR12

Samplerate: 96000 Hz
Channels: 2
Bits per sample: 24
Bitrate: 2743 kbps
Codec: FLAC
================================================================================

foobar2000 1.4.1 / Dynamic Range Meter 1.1.1
log date: 2021-06-14 12:26:11

––––––––––––––––––––––––––––––––––––––––
Analyzed: The Mars Volta / La Realidad de los Sueños: The Bedlam In Goliath
––––––––––––––––––––––––––––––––––––––––

DR Peak RMS Duration Track
––––––––––––––––––––––––––––––––––––––––
DR11 -1.04 dB -14.48 dB 5:45 01-Aberinkula
DR12 -0.93 dB -14.60 dB 8:12 02-Metatron
DR11 -2.04 dB -17.34 dB 5:37 03-Ilyena
DR11 -0.37 dB -14.26 dB 2:39 04-Wax Simulacra
DR12 -1.12 dB -15.06 dB 7:16 05-Goliath
DR11 -1.53 dB -16.23 dB 2:38 06-Tourniquet Man
DR11 -1.35 dB -16.74 dB 9:41 07-Cavalettas
DR11 -0.84 dB -14.20 dB 6:44 08-Agadez
DR11 -2.72 dB -17.10 dB 5:11 09-Askepios
DR12 -1.27 dB -16.43 dB 6:37 10-Ouroborous
DR12 -1.69 dB -16.33 dB 9:08 11-Soothsayer
DR11 -2.62 dB -16.73 dB 6:36 12-Conjugal Burns
DR12 -1.49 dB -16.20 dB 3:19 13-Mr. Muggs
DR11 -3.69 dB -17.75 dB 3:20 14-Mr. Muggs
––––––––––––––––––––––––––––––––––––––––

Number of tracks: 14
Official DR value: DR11

Samplerate: 96000 Hz
Channels: 2
Bits per sample: 24
Bitrate: 2901 kbps
Codec: FLAC
================================================================================

foobar2000 1.4.1 / Dynamic Range Meter 1.1.1
log date: 2021-06-14 12:26:43

––––––––––––––––––––––––––––––––––––––––
Analyzed: The Mars Volta / La Realidad de los Sueños: Tremulant EP
––––––––––––––––––––––––––––––––––––––––

DR Peak RMS Duration Track
––––––––––––––––––––––––––––––––––––––––
DR11 -1.39 dB -16.18 dB 5:43 01-Cut That City
DR11 -1.87 dB -15.87 dB 4:54 02-Concertina
DR11 -0.79 dB -15.83 dB 8:48 03-Eunuch Provocateur
––––––––––––––––––––––––––––––––––––––––

Number of tracks: 3
Official DR value: DR11

Samplerate: 96000 Hz
Channels: 2
Bits per sample: 24
Bitrate: 2928 kbps
Codec: FLAC
================================================================================


Lineage: Technics 1210 with Ortofon Concorde MkII > Traktor Audio 4 DJ > Ableton Live

Post-processing: Waves X-Noise & Waves X-Click

Sides ending with locked grooves were faded out.

96/24 verified with Audacity

Thanks to the Original customer!