Tags
Language
Tags

The Nitty Gritty Dirt Band - Dirt Does Dylan (2022) [Official Digital Download 24/96]

Posted By: delpotro
The Nitty Gritty Dirt Band - Dirt Does Dylan (2022) [Official Digital Download 24/96]

The Nitty Gritty Dirt Band - Dirt Does Dylan (2022)
FLAC (tracks) 24-bit/96 kHz | Front Cover | Time - 40:27 minutes | 899 MB
Folk, Country Rock, Americana | Label: MRI, Official Digital Download

Five-decades-running Americana pioneers Nitty Gritty Dirt Band have already played a major role in the preservation and popularity of folk music—their Will The Circle Be Unbroken album series introduced droves of new fans to folk, country, and bluegrass and earned the band multiple Grammy awards—but now, the long-running group have taken on another American institution near and dear to their hearts; the Bob Dylan songbook.

On May 20th, the band will be releasing Dirt Does Dylan, a ten-track album highlighting some of the gems from Dylan’s vast catalog with the help of three new band members: fiddle specialist Ross Holmes; singer-songwriter and bass player Jim Photoglo (who wrote one of the Dirt Band’s biggest hits, “Fishin’ in the Dark”); and Dirt Band founder Jeff Hanna’s son, the absurdly talented singer and guitarist Jaime Hanna. Produced and recorded by Ray Kennedy at Room & Board Studio in Nashville, Tennessee, Dirt Does Dylan finds a generation-spanning Dirt Band paying an appropriately great tribute to arguably the greatest songwriter of the 20th century with the help of friends like Jason Isbell, The War & Treaty, Steve Earle, and Rosanne Cash, to name a few.

Today, Billboard premiered the Dirt Band’s cover of “I Shall Be Released,” which Dylan originally recorded with The Band during their infamous Basement Tapes sessions. On this version of the tune, sisters Rebecca and Megan Lovell—better known as accomplished blues-rock duo Larkin Poe—lend their perfectly-blended voices and Megan’s lap steel guitar skills to the mix. Carpenter takes the first verse vocals while the Hannas handle guitar duties. Aside from the fine songwriting itself, Jeff Hanna and Megan Lovell’s infectious guitar interplay carries the song from verse to verse, culminating in the song’s final solo section.

“I Shall Be Released” gets the dream session treatment, pairing the talents of one of the finest roots groups the US ever produced with the skills of two amazing women who are carrying American music into the future. Keyboardist Bob Carpenter’s lead vocals are holy and soulful, blending well with the track’s gospel feel. The Lovell sisters are stunningly good and absolutely haul the mail on vocals and lap steel. The levels of grace and emotion here are beyond measure. Only the real ones can play like this and we’re all blessed to be able to listen.

Tracklist:
1. Tonight I'll Be Staying Here with You (02:57)
2. Girl from the North Country (04:54)
3. It Takes a Lot to Laugh, It Takes a Train to Cry (05:12)
4. Country Pie (02:49)
5. I Shall Be Released (feat. Larkin Poe) (04:47)
6. She Belongs to Me (04:06)
7. Forever Young (04:16)
8. The Times They Are A-Changin' (feat. Rosanne Cash, Steve Earle, Jason Isbell & The War and Treaty) (03:44)
9. Don't Think Twice, It's All Right (04:29)
10. Quinn the Eskimo (The Mighty Quinn) (03:09)

foobar2000 1.4.1 / Dynamic Range Meter 1.1.1
log date: 2022-05-20 10:27:44

––––––––––––––––––––––––––––––––––––––––
Analyzed: The Nitty Gritty Dirt Band / Dirt Does Dylan
––––––––––––––––––––––––––––––––––––––––

DR Peak RMS Duration Track
––––––––––––––––––––––––––––––––––––––––
DR7 -0.20 dB -7.82 dB 2:58 01-Tonight I'll Be Staying Here with You
DR6 -0.20 dB -7.56 dB 4:54 02-Girl from the North Country
DR6 -0.20 dB -7.35 dB 5:12 03-It Takes a Lot to Laugh, It Takes a Train to Cry
DR7 -0.20 dB -8.14 dB 2:50 04-Country Pie
DR6 -0.20 dB -7.34 dB 4:48 05-I Shall Be Released (feat. Larkin Poe)
DR6 -0.20 dB -7.47 dB 4:07 06-She Belongs to Me
DR6 -0.20 dB -7.38 dB 4:17 07-Forever Young
DR6 -0.20 dB -7.09 dB 3:44 08-The Times They Are A-Changin' (feat. Rosanne Cash, Steve Earle, Jason Isbell & The War and Treaty)
DR9 -0.20 dB -10.34 dB 4:29 09-Don't Think Twice, It's All Right
DR6 -0.20 dB -7.70 dB 3:09 10-Quinn the Eskimo (The Mighty Quinn)
––––––––––––––––––––––––––––––––––––––––

Number of tracks: 10
Official DR value: DR7

Samplerate: 96000 Hz
Channels: 2
Bits per sample: 24
Bitrate: 3167 kbps
Codec: FLAC
================================================================================


Thanks to the Original customer!