Tags
Language
Tags

VA - Women Of Doom (2020) [Official Digital Download]

Posted By: delpotro
VA - Women Of Doom (2020) [Official Digital Download]

VA - Women Of Doom (2020)
FLAC (tracks) 24-bit/44,1 kHz | Front Cover | Time - 50:08 minutes | 571 MB
Stoner Rock, Stoner Metal, Stoner Doom, Female Vocal | Label: Blues Funeral Recordings, Official Digital Download

Women of Doom is a project created to highlight, recognize and celebrate the impact of female artists on all things heavy.

A collaborative compilation album presented on classic black and limited edition vinyl, CD, and digital formats, Women of Doom features all-new original songs from a mindblowing assemblage of badass female artists whose creativity and heaviness has been blowing our minds and our speakers for years.

Tracklist:
1. Nighthawk and Heavy Temple - Astral Hand (05:12)
2. Amy Tung Barrysmith - Broken (06:04)
3. Besvärjelsen - A Curse to be Broken (06:47)
4. Mlny Parsonz - A Skeleton is Born (04:58)
5. Frayle - Marrow (04:53)
6. The Otolith - Bone Dust (04:31)
7. Doomstress Alexis - Facade (04:47)
8. Deathbell - Coldclaw (04:25)
9. The Keening - A Shadow Covers Your Face (05:06)
10. Mlny Parsonz - Broke An Arrow (03:25)

foobar2000 1.4.1 / Dynamic Range Meter 1.1.1
log date: 2020-11-30 15:53:02

––––––––––––––––––––––––––––––––––––––––
Analyzed: Amy Tung Barrysmith / Women Of Doom (1)
Besvarjelsen / Women Of Doom (2)
Deathbell / Women Of Doom (3)
Doomstress Alexis / Women Of Doom (4)
Frayle / Women Of Doom (5)
Mlny Parsonz / Women Of Doom (6-7)
Nighthawk and Heavy Temple / Women Of Doom (8)
The Keening / Women Of Doom (9)
The Otolith / Women Of Doom (10)
––––––––––––––––––––––––––––––––––––––––

DR Peak RMS Duration Track
––––––––––––––––––––––––––––––––––––––––
DR7 -0.02 dB -9.51 dB 6:04 02-Broken
DR3 0.00 dB -4.03 dB 6:47 03-A Curse to be Broken
DR4 -0.02 dB -5.29 dB 4:25 08-Coldclaw
DR3 -0.02 dB -4.31 dB 4:47 07-Facade
DR3 0.00 dB -5.42 dB 4:53 05-Marrow
DR6 -0.02 dB -10.35 dB 4:58 04-A Skeleton is Born
DR9 -0.02 dB -13.25 dB 3:25 10-Broke an Arrow (Bonus Track)
DR4 -0.02 dB -5.08 dB 5:12 01-Astral Hand
DR10 -0.02 dB -14.34 dB 5:06 09-A Shadow Covers Your Face
DR4 -0.02 dB -6.88 dB 4:31 06-Bone Dust
––––––––––––––––––––––––––––––––––––––––

Number of tracks: 10
Official DR value: DR5

Samplerate: 44100 Hz
Channels: 2
Bits per sample: 24
Bitrate: 1419 kbps
Codec: FLAC
================================================================================


Thanks to the Original customer!