Tags
Language
Tags

Woods - Strange To Explain [More Strange (Deluxe Edition)] (2020/2021) [Official Digital Download 24/96]

Posted By: delpotro
Woods - Strange To Explain [More Strange (Deluxe Edition)] (2020/2021) [Official Digital Download 24/96]

Woods - Strange To Explain [More Strange (Deluxe Edition)] (2020/2021)
FLAC (tracks) 24-bit/96 kHz | Front Cover | Time - 57:02 minutes | 1,21 GB
Indie Rock, Psychedelic Rock, Folk Rock | Label: Woodsist Records, Official Digital Download

Woods, the psych-folk partnership of Jeremy Earl and Jarvis Taveniere, will release More Strange, the deluxe edition of their highly acclaimed 2020 album Strange To Explain, on July 23 via Woodsist Records.

Strange To Explain represented Woods’ first work following a series of milestones – Earl and Taveniere created the now-classic Purple Mountains record with David Berman; Taveniere moved from New York to California, making the band bicoastal for the first time in its 15-year existence; and Earl became a father. “Those first few months or first year of having a newborn kind of put me in a dreamlike state,” Earl told NPR’s Weekend Edition. “Starting to write the record was an escape for me from my everyday reality and anxieties.” The album was released to praise from Pitchfork, The Fader, Stereogum, Relix, and the New York Times, who profiled the band and called Strange To Explain their “most magnetic record yet… These 11 songs pair the eccentricity of Woods’ early records with the conviction that it’s all worth saying and playing a little louder.”

Tracklist:
1. Next To You and the Sea (03:53)
2. Where Do You Go When You Dream? (05:51)
3. Before They Pass By (02:50)
4. Can't Get Out (05:18)
5. Strange To Explain (03:34)
6. The Void (02:12)
7. Just To Fall Asleep (05:44)
8. Fell So Hard (04:01)
9. Light of Day (03:19)
10. Be There Still (03:35)
11. Weekend Wind (07:16)
12. Nickels and Dimes (03:08)
13. Waiting Around For a New Me (02:23)
14. Daylight Push (03:51)

foobar2000 1.4.1 / Dynamic Range Meter 1.1.1
log date: 2021-07-26 12:04:29

––––––––––––––––––––––––––––––––––––––––
Analyzed: Woods / Strange to Explain (More Strange - Deluxe Edition)
––––––––––––––––––––––––––––––––––––––––

DR Peak RMS Duration Track
––––––––––––––––––––––––––––––––––––––––
DR8 -0.30 dB -9.36 dB 3:53 01-Next to You and the Sea
DR7 -0.30 dB -8.94 dB 5:52 02-Where Do You Go When You Dream
DR8 -0.30 dB -9.25 dB 2:50 03-Before They Pass By
DR7 -0.30 dB -8.56 dB 5:19 04-Can't Get Out
DR8 -0.30 dB -9.94 dB 3:35 05-Strange to Explain
DR11 -0.30 dB -12.54 dB 2:12 06-The Void
DR9 -0.30 dB -10.22 dB 5:44 07-Just to Fall Asleep
DR7 -0.30 dB -8.51 dB 4:02 08-Fell so Hard
DR7 -0.30 dB -8.61 dB 3:19 09-Light of Day
DR9 -0.30 dB -11.46 dB 3:36 10-Be There Still
DR8 -0.30 dB -10.81 dB 7:17 11-Weekend Wind
DR8 0.00 dB -10.38 dB 3:08 12-Nickels and Dimes
DR7 -0.19 dB -9.09 dB 2:24 13-Waiting Around for a New Me
DR6 -0.15 dB -8.28 dB 3:51 14-Daylight Push
––––––––––––––––––––––––––––––––––––––––

Number of tracks: 14
Official DR value: DR8

Samplerate: 96000 Hz
Channels: 2
Bits per sample: 24
Bitrate: 2951 kbps
Codec: FLAC
================================================================================


Thanks to the Original customer!