Wyldest - Monthly Friend (2021) [Official Digital Download]

Posted By: delpotro
Wyldest - Monthly Friend (2021) [Official Digital Download]

Wyldest - Monthly Friend (2021)
FLAC (tracks) 24-bit/44,1 kHz | Front Cover | Time - 37:16 minutes | 419 MB
Indie Rock, Dreampop, Female Vocal | Label: Hand in Hive, Official Digital Download

The musical evolution of Zoe Mead, aka Wyldest, has been a slow but steady one – a mix of deliberate exploration, a natural shifting in taste, and a certain virus twisting her arm. After recording drums for 20 songs touted for her second album - Monthly Friend - last February, the impending lockdown then took studio time off the table.

“Firstly I entertained the idea of mixing it myself and then sort of laughed it off,” Zoe reflects. After spending the isolated summer of 2020 mixing music for some friends confidence then came, empowering her to finish the album herself, completing her bloom into an entirely self-sufficient musician, songwriter, producer and mixer.

Tracklist:
1. Beggar (04:49)
2. Hollow (03:04)
3. Buddy (04:06)
4. Monthly Friend (03:31)
5. Heal (03:54)
6. Almost Bliss (03:08)
7. Glue (03:04)
8. Arrows (03:24)
9. Burn (03:23)
10. The Void (04:48)

foobar2000 1.4.1 / Dynamic Range Meter 1.1.1
log date: 2021-05-29 03:17:10

––––––––––––––––––––––––––––––––––––––––
Analyzed: Wyldest / Monthly Friend
––––––––––––––––––––––––––––––––––––––––

DR Peak RMS Duration Track
––––––––––––––––––––––––––––––––––––––––
DR4 -0.12 dB -5.77 dB 4:50 01-Beggar
DR5 -0.08 dB -6.99 dB 3:04 02-Hollow
DR4 -0.06 dB -6.91 dB 4:07 03-Buddy
DR6 -0.09 dB -7.70 dB 3:32 04-Monthly Friend
DR7 -0.08 dB -8.68 dB 3:55 05-Heal
DR5 -0.09 dB -5.97 dB 3:08 06-Almost Bliss
DR6 -0.11 dB -7.72 dB 3:04 07-Glue
DR5 -0.12 dB -6.98 dB 3:25 08-Arrows
DR6 -0.08 dB -8.47 dB 3:24 09-Burn
DR4 -0.14 dB -6.80 dB 4:49 10-The Void
––––––––––––––––––––––––––––––––––––––––

Number of tracks: 10
Official DR value: DR5

Samplerate: 44100 Hz
Channels: 2
Bits per sample: 24
Bitrate: 1554 kbps
Codec: FLAC
================================================================================


Thanks to the Original customer!