Lorene Mann - A Mann Named Lorene (1969/2019) [Official Digital Download 24/96]

Posted By: Pisulik
Lorene Mann - A Mann Named Lorene (1969/2019) [Official Digital Download 24/96]

Lorene Mann - A Mann Named Lorene (1969/2019)
FLAC (tracks) 24-bit/96 kHz | Time - 28:24 minutes | 637 MB
Studio Master, Official Digital Download | Artwork: Front cover

An irreverent songwriter, Lorene Mann achieved minor success as a Nashville-based country artist in the mid-‘60s. Her first success came as a duet partner with Justin Tubb and Archie Campbell, but when she struck out on her own she provided country fans with an oft not heard take on dating and love. Her "Don't Put Your Hands on Me" was a call to arms for any woman ever hit on in a bar by a drunken slob. Even more controversial was her song "Hide My Sin," in which she tells the sad tale of a woman who decides to terminate her pregnancy while backup singers chime in by spelling out ABORTION. After those minor hits, though, Mann soon faded from the scene. Perhaps her songs were just too far ahead of their time. In fact, they're still ahead of their time in conservative Nashville.

Tracklist:

01. Color Him Father
02. Daddy Sang Bass
03. Stand By Your Man
04. All I Have to Offer You (Is Me)
05. Stranger At the Funeral
06. You Used to Call Me Baby
07. Tell It All
08. Don't Put Your Hands On Me
09. So I Could Be Your Friend
10. One of Them
11. Stay Out of My Dreams

foobar2000 1.3.7 / Dynamic Range Meter 1.1.1
log date: 2019-12-14 03:32:38

––––––––––––––––––––––––––––––––––––––––
Analyzed: Lorene Mann / A Mann Named Lorene
––––––––––––––––––––––––––––––––––––––––

DR Peak RMS Duration Track
––––––––––––––––––––––––––––––––––––––––
DR9 -0.08 dB -11.19 dB 2:44 01-Color Him Father
DR9 -0.09 dB -11.84 dB 2:33 02-Daddy Sang Bass
DR9 -0.09 dB -13.77 dB 2:54 03-Stand By Your Man
DR11 -0.09 dB -13.07 dB 3:13 04-All I Have to Offer You (Is Me)
DR11 -0.72 dB -13.47 dB 2:42 05-Stranger At the Funeral
DR9 -0.81 dB -13.12 dB 2:37 06-You Used to Call Me Baby
DR9 -0.09 dB -12.07 dB 2:24 07-Tell It All
DR10 -0.10 dB -12.47 dB 2:07 08-Don't Put Your Hands On Me
DR10 -0.50 dB -13.78 dB 2:52 09-So I Could Be Your Friend
DR11 -0.18 dB -14.05 dB 2:07 10-One of Them
DR10 -1.24 dB -13.30 dB 2:16 11-Stay Out of My Dreams
––––––––––––––––––––––––––––––––––––––––

Number of tracks: 11
Official DR value: DR10

Samplerate: 96000 Hz
Channels: 2
Bits per sample: 24
Bitrate: 3149 kbps
Codec: FLAC
================================================================================


All thanks go to the original releaser