VA - Moris Zekler: Fuzz & Soul Sega from 70's Mauritius (2020) [Official Digital Download]

Posted By: shamanicus
VA - Moris Zekler: Fuzz & Soul Sega from 70's Mauritius (2020) [Official Digital Download]

VA - Moris Zekler: Fuzz & Soul Sega from 70's Mauritius (2020)
FLAC (tracks) 24-bit/44.1 kHz | 42:28 | 504 mb
Studio Master, Official Digital Download | Artwork: front cover, d.booklet

Created at the crossroads of Afro-Malagasy, the 70s strain fused Western and Indian cultures, pop, soul and funk arrangements, syncopated polyrhythms, saturated guitars, psychedelic organs and Creole vocals. Although the exact origins of sega remain unknown, it contains vocal and percussive practices that originated from Madagascar, Mozambique and East Africa. A social escape and a space for improvisation, satire and verbal jousting, it transcended everyday life and made room for the expression of conflicts and the transgression of taboos. The main instrument of sega is the ravanne, a large tambourine like drum made of a large wooden frame and goat skin. It is accompanied by the maravanne, a rectangular rattle filled with seeds, and other homemade forms of percussion.

Eric Nelson a solo guitarist and arranger, set up the band Features Of Life which, in the mid 70's, gave birth to a new sound. Fuzzy distorted guitars and funky beats invite each other to play over the unbridled beats created by fabulous drummer Raoul Lacariate. The band accompanied a new wave of singers, including the atypical Joseph Roland Fatime aka Ti L'Afrique, a hyperbolic and hyperactive character, a fan of blues and James Brown who launched an explosive raw, and funky style of sega.

Tracklist:

01. Harold Berty - Django
02. Ti L'Afrique - Pop Soul Sega
03. Claudio - Qui fine arrivé
04. Paul Labonne - Ti Malgache ti madras
05. George Gabriel - Pop Sega
06. Features of Life - Soul Sabattah
07. Roland Fatime - S.i.l.v.i.e
08. Jean Claude - Machin sex
09. Joss Henri - Apollo Pop 76
10. Coulouce - Beau-père
11. John Kenneth Nelson - Change to manière
12. Lelou Menwar - Capito
13. Daniel Delord - Maria


foobar2000 1.4 / Dynamic Range Meter 1.1.1
log date: 2020-06-02 16:11:31

––––––––––––––––––––––––––––––––––––––––
Analyzed: Claudio / Moris Zekler: Fuzz & Soul Sega from 70's Mauritius (1)
Coulouce / Moris Zekler: Fuzz & Soul Sega from 70's Mauritius (2)
Daniel Delord / Moris Zekler: Fuzz & Soul Sega from 70's Mauritius (3)
Features of Life / Moris Zekler: Fuzz & Soul Sega from 70's Mauritius (4)
George Gabriel / Moris Zekler: Fuzz & Soul Sega from 70's Mauritius (5)
Harold Berty / Moris Zekler: Fuzz & Soul Sega from 70's Mauritius (6)
Jean Claude / Moris Zekler: Fuzz & Soul Sega from 70's Mauritius (7)
John Kenneth Nelson / Moris Zekler: Fuzz & Soul Sega from 70's Mauritius (8)
Joss Henri / Moris Zekler: Fuzz & Soul Sega from 70's Mauritius (9)
Lelou Menwar / Moris Zekler: Fuzz & Soul Sega from 70's Mauritius (10)
Paul Labonne / Moris Zekler: Fuzz & Soul Sega from 70's Mauritius (11)
Roland Fatime / Moris Zekler: Fuzz & Soul Sega from 70's Mauritius (12)
Ti L'Afrique / Moris Zekler: Fuzz & Soul Sega from 70's Mauritius (13)
––––––––––––––––––––––––––––––––––––––––

DR Peak RMS Duration Track
––––––––––––––––––––––––––––––––––––––––
DR6 -0.39 dB -8.12 dB 2:50 03-Qui fine arrivé
DR8 -0.39 dB -10.26 dB 3:13 10-Beau-père
DR8 -0.49 dB -10.68 dB 3:13 13-Maria
DR12 -0.99 dB -13.98 dB 4:26 06-Soul Sabattah
DR8 -0.39 dB -9.74 dB 3:52 05-Pop Sega
DR7 -0.29 dB -8.65 dB 2:30 01-Django
DR8 -0.59 dB -10.92 dB 2:54 08-Machin sex
DR9 -0.39 dB -10.20 dB 2:21 11-Change to manière
DR9 -0.29 dB -11.11 dB 3:07 09-Apollo Pop 76
DR9 -0.59 dB -11.45 dB 3:21 12-Capito
DR9 -0.59 dB -10.66 dB 2:55 04-Ti Malgache ti madras
DR9 -0.39 dB -10.81 dB 3:33 07-S.i.l.v.i.e
DR9 -0.69 dB -10.67 dB 4:13 02-Pop Soul Sega
––––––––––––––––––––––––––––––––––––––––

Number of tracks: 13
Official DR value: DR9

Samplerate: 44100 Hz
Channels: 2
Bits per sample: 24
Bitrate: 1592 kbps
Codec: FLAC
================================================================================




Thanks to the Original customer.