Animal Collective - Crestone (Original Score) (2021) [Official Digital Download]

Posted By: delpotro
Animal Collective - Crestone (Original Score) (2021) [Official Digital Download]

Animal Collective - Crestone (Original Score) (2021)
FLAC (tracks) 24-bit/44,1 kHz | Front Cover | Time - 35:00 minutes | 356 MB
Electronic, Soundtrack | Label: Domino, Official Digital Download

The debut feature written, produced and directed by Marnie Ellen Hertzler. Set in the desert of Crestone, Colorado over the course of eight days and set to an original score composed by Animal Collective's Geologist & Deakin. Crestone follows a group of SoundCloud rappers who live in solitude, growing weed and making music for the internet. When an old friend arrives to make a movie, reality and fiction begin to blur.

Tracklist:
1. Dome Yard (01:18)
2. Eye in the Sky (02:41)
3. Boxing & Breathing (02:03)
4. Scavengers (01:50)
5. Wake up Ryan (01:40)
6. Benz’s Dream (02:37)
7. Sloppy’s Dream (01:36)
8. Sand That Moves (03:38)
9. Over the Sangre De Christo (01:17)
10. Ebs (00:41)
11. Sad Boy Sleeping (01:52)
12. Ramshack (01:54)
13. Smoke & Broken Mirror (01:55)
14. Zapata Falls (04:37)
15. Oh California (01:34)
16. Cotton Candy Sky (Dead God Theme) (03:40)

foobar2000 1.4.1 / Dynamic Range Meter 1.1.1
log date: 2021-02-16 10:36:35

––––––––––––––––––––––––––––––––––––––––
Analyzed: Animal Collective / Crestone (Original Score)
––––––––––––––––––––––––––––––––––––––––

DR Peak RMS Duration Track
––––––––––––––––––––––––––––––––––––––––
DR10 -0.79 dB -12.70 dB 1:19 01-Dome Yard
DR11 -0.78 dB -15.68 dB 2:41 02-Eye in the Sky
DR9 -0.79 dB -14.96 dB 2:03 03-Boxing & Breathing
DR8 -0.77 dB -13.28 dB 1:50 04-Scavengers
DR11 -0.70 dB -14.56 dB 1:40 05-Wake Up Ryan
DR10 -1.58 dB -14.33 dB 2:38 06-Benz’s Dream
DR8 -0.79 dB -10.20 dB 1:36 07-Sloppy’s Dream
DR9 -0.70 dB -11.60 dB 3:38 08-Sand That Moves
DR11 -0.79 dB -15.14 dB 1:18 09-Over the Sangre de Christo
DR9 -1.36 dB -14.13 dB 0:41 10-EBS
DR11 -0.79 dB -15.43 dB 1:53 11-Sad Boy Sleeping
DR8 -0.75 dB -13.51 dB 1:55 12-Ramshack
DR10 -0.78 dB -14.94 dB 1:56 13-Smoke & Broken Mirror
DR10 -0.78 dB -14.02 dB 4:37 14-Zapata Falls
DR10 -0.79 dB -11.58 dB 1:34 15-Oh California
DR11 -0.78 dB -14.05 dB 3:40 16-Cotton Candy Sky (Dead God Theme)
––––––––––––––––––––––––––––––––––––––––

Number of tracks: 16
Official DR value: DR10

Samplerate: 44100 Hz
Channels: 2
Bits per sample: 24
Bitrate: 1409 kbps
Codec: FLAC
================================================================================


Thanks to the Original customer!