Tags
Language
Tags

Django Django - Glowing in the Dark (2021) [Official Digital Download]

Posted By: delpotro
Django Django - Glowing in the Dark (2021) [Official Digital Download]

Django Django - Glowing in the Dark (2021)
FLAC (tracks) 24-bit/44,1 kHz | Front Cover | Time - 43:58 minutes | MB
Indie Rock, Art Rock, Neo-psychedelia | Label: Because Music, Official Digital Download

Over the course of their extraordinarily accomplished discography to date, Django Django have constantly headed left where others have gone right. Described by The Guardian as “capable of making music that sounds close to perfection”, they are known for their genre defying eclectic sound and their new album Glowing in the Dark heralds, once again, the beginning of a thrilling new era for the band.

Glowing in the Dark has a running theme of escape: from despair, from constraints, from small town life, and even, in dreams, from the Earth. The brilliant title track and new single, for instance, soars gloriously towards the stratosphere. A track built around a sample from one of Dave Maclean’s spoken word records then plushly upholstered with Moog synths and drum loops, it is accompanied by some eye strobing visuals from rapidly ascending NYC artist and illustrator Braulio Amado.

Tracklist:
1. Spirals (04:59)
2. Right the Wrongs (02:08)
3. Got Me Worried (03:36)
4. Waking Up (feat. Charlotte Gainsbourg) (03:18)
5. Free from Gravity (02:54)
6. Headrush (03:58)
7. The Ark (02:45)
8. Night of the Buffalo (03:55)
9. The World Will Turn (01:53)
10. Kick the Devil Out (03:19)
11. Glowing in the Dark (02:59)
12. Hold Fast (04:47)
13. Asking for More (03:21)

foobar2000 1.4.1 / Dynamic Range Meter 1.1.1
log date: 2021-02-12 09:52:45

––––––––––––––––––––––––––––––––––––––––
Analyzed: Django Django / Glowing in the Dark
––––––––––––––––––––––––––––––––––––––––

DR Peak RMS Duration Track
––––––––––––––––––––––––––––––––––––––––
DR6 -0.30 dB -8.10 dB 5:00 01-Spirals
DR7 -0.30 dB -8.52 dB 2:09 02-Right the Wrongs
DR6 -0.30 dB -7.92 dB 3:36 03-Got Me Worried
DR6 -0.28 dB -8.14 dB 3:18 04-Waking Up
DR7 -0.30 dB -8.50 dB 2:54 05-Free from Gravity
DR6 -0.30 dB -8.44 dB 3:59 06-Headrush
DR8 -0.30 dB -10.70 dB 2:46 07-The Ark
DR4 -0.30 dB -6.76 dB 3:56 08-Night of the Buffalo
DR8 -0.30 dB -11.47 dB 1:53 09-The World Will Turn
DR7 -0.30 dB -8.69 dB 3:20 10-Kick the Devil Out
DR6 -0.30 dB -8.06 dB 2:59 11-Glowing in the Dark
DR5 -0.22 dB -7.85 dB 4:48 12-Hold Fast
DR5 -0.17 dB -7.08 dB 3:21 13-Asking for More
––––––––––––––––––––––––––––––––––––––––

Number of tracks: 13
Official DR value: DR6

Samplerate: 44100 Hz
Channels: 2
Bits per sample: 24
Bitrate: 1509 kbps
Codec: FLAC
================================================================================


Thanks to the Original customer!