Tags
Language
Tags

Duval Timothy - Help (2020) [Official Digital Download]

Posted By: delpotro
Duval Timothy - Help (2020) [Official Digital Download]

Duval Timothy - Help (2020)
FLAC (tracks) 24-bit/44,1 kHz | Front Cover | Time - 55:54 minutes | 518 MB
Experimental Electronic, Nu Jazz | Label: Carrying Colour, Official Digital Download

Duval Timothy's latest album Help, his most ambitious work to date, sees him collaborate with co-producer Rodaidh McDonald (King Krule, The XX) and Marta Salogni (Bjork), with collaborations from Lil Silva, Melanie Faye, Vegyn, Desta Haile, Mr Mitch, Dave Okumo, and Twin Shadow amongst others.

Recorded in London and Los Angeles, it reveals the artists' experience traversing the meshes of the music industry, mental health, YouTube self-help videos, and the healing he discovered through friendship and collaboration.

Duval Timothy is a multidisciplinary artist, whose practise is centred around colour and involves the use of music, photography, textiles, painting, sculpture, design, cooking and video. In between delivering a celebrated cookbook for Penguin Books, and an interactive installation at Tate Modern Turbine Hall, Duval makes music, which is sampled by the likes of Solange and Loyle Carner.

Tracklist:
1. Duval Timothy – Next Tomorrow (02:52)
2. Duval Timothy & Twin Shadow – Slave (03:28)
3. Duval Timothy – Tdagb (00:22)
4. Duval Timothy, Lil Silva & Melanie Faye – Fall Again (04:10)
5. Duval Timothy – 9 (03:00)
6. Duval Timothy – Groundnut (03:21)
7. Duval Timothy & Vegyn – Like (04:17)
8. Duval Timothy – Radish (04:07)
9. Duval Timothy & Mr. Mitch – Something (03:01)
10. Duval Timothy – Alone (02:31)
11. Duval Timothy – Still Happened (03:09)
12. Duval Timothy – Look (05:00)
13. Duval Timothy – Same (02:39)
14. Duval Timothy – Ice (03:13)
15. Duval Timothy – C (03:56)
16. Duval Timothy – U (02:31)
17. Duval Timothy – Morning (01:53)
18. Duval Timothy – Pink (02:15)

foobar2000 1.4.1 / Dynamic Range Meter 1.1.1
log date: 2020-08-07 18:14:57

––––––––––––––––––––––––––––––––––––––––
Analyzed: Duval Timothy / Help
––––––––––––––––––––––––––––––––––––––––

DR Peak RMS Duration Track
––––––––––––––––––––––––––––––––––––––––
DR9 -0.14 dB -11.06 dB 2:53 01-Next Tomorrow
DR10 -0.14 dB -12.24 dB 3:29 02-Slave
DR11 -0.14 dB -16.83 dB 0:23 03-TDAGB
DR6 -0.14 dB -9.72 dB 4:10 04-Fall Again
DR12 -0.13 dB -15.33 dB 3:01 05-9
DR9 -0.13 dB -13.13 dB 3:21 06-Groundnut
DR9 -0.36 dB -13.39 dB 4:17 07-Like
DR12 -0.14 dB -14.30 dB 4:08 08-Radish
DR10 -5.66 dB -18.59 dB 3:01 09-Something
DR9 -0.52 dB -12.06 dB 2:31 10-Alone
DR10 -1.80 dB -16.39 dB 3:09 11-Still Happened
DR12 -0.22 dB -14.48 dB 5:00 12-Look
DR12 -0.97 dB -16.42 dB 2:40 13-Same
DR11 -1.87 dB -17.24 dB 3:14 14-Ice
DR13 -0.14 dB -17.37 dB 3:57 15-C
DR12 -0.14 dB -15.40 dB 2:31 16-U
DR9 -0.14 dB -11.16 dB 1:54 17-Morning
DR9 -0.14 dB -10.58 dB 2:16 18-Pink
––––––––––––––––––––––––––––––––––––––––

Number of tracks: 18
Official DR value: DR10

Samplerate: 44100 Hz
Channels: 2
Bits per sample: 24
Bitrate: 1322 kbps
Codec: FLAC
================================================================================


Thanks to the Original customer!