Tags
Language
Tags

Foehn Trio - Highlines (2020) [Official Digital Download 24/88]

Posted By: delpotro
Foehn Trio - Highlines (2020) [Official Digital Download 24/88]

Foehn Trio - Highlines (2020)
FLAC (tracks) 24-bit/88,2 kHz | Front Cover | Time - 54:45 minutes | 1,01 GB
Contemporary Jazz, Nu Jazz, Fusion | Label: Mad Chaman, Official Digital Download

From the name of an ancestral wind transporting every grain of sand from the Sahara to the mountains of the Alps, the Fœhn trio takes you on a musical journey filled with emotion and bonding. Melodic and contemporary, Fœhn's music invites the public from the first notes to enter into its singular imagination, oscillating between acoustics and amplification, between intimacy and power.

Tracklist:
1. Wolves (06:03)
2. La Barma (05:32)
3. Danse pour Gaia feat. Joce Mienniel (06:37)
4. Freeride (02:47)
5. La Gnossienne No1 (04:51)
6. Old Ocean feat. Erik Truffaz (06:24)
7. La Vengeance de Mme Carle (05:39)
8. Chimeres (02:07)
9. Cirrus (05:49)
10. Liquid Ambar (02:33)
11. Camera Obscura (06:24)

foobar2000 1.4.1 / Dynamic Range Meter 1.1.1
log date: 2021-01-19 13:52:30

––––––––––––––––––––––––––––––––––––––––
Analyzed: Foehn Trio / Highlines
––––––––––––––––––––––––––––––––––––––––

DR Peak RMS Duration Track
––––––––––––––––––––––––––––––––––––––––
DR9 -0.10 dB -11.55 dB 6:03 01-Wolves
DR9 -0.10 dB -11.63 dB 5:32 02-La Barma
DR8 -0.10 dB -12.28 dB 6:37 03-Danse pour Gaia
DR8 -0.10 dB -12.65 dB 2:47 04-Free Ride
DR9 -0.10 dB -11.05 dB 4:51 05-Gnossienne No.1
DR9 -0.10 dB -12.44 dB 6:24 06-Old Ocean
DR10 -0.10 dB -13.15 dB 5:39 07-La vengeance de Madame Carle
DR11 -0.12 dB -14.81 dB 2:07 08-Chimères
DR9 -0.10 dB -10.56 dB 5:49 09-Cirrus
DR12 -0.10 dB -15.58 dB 2:33 10-Liquid Ambar
DR8 -0.10 dB -10.98 dB 6:24 11-Camera Obscura
––––––––––––––––––––––––––––––––––––––––

Number of tracks: 11
Official DR value: DR9

Samplerate: 88200 Hz
Channels: 2
Bits per sample: 24
Bitrate: 2546 kbps
Codec: FLAC
================================================================================


Thanks to the Original customer!