Jaga Jazzist - The Tower (2021) [Official Digital Download]

Posted By: delpotro
Jaga Jazzist - The Tower (2021) [Official Digital Download]

Jaga Jazzist - The Tower (2021)
FLAC (tracks) 24-bit/44,1 kHz | Front Cover | Time - 41:49 minutes | 462 MB
Contemporary Jazz, Nu Jazz, Fusion | Label: Brainfeeder, Official Digital Download

Jaga Jazzist (also known as Jaga) is a Norwegian experimental jazz band, that rose to prominence when the BBC named their second album, A Livingroom Hush (Smalltown Supersound/Ninja Tune), the best jazz album of 2002.

Tracklist:
1. Tomita (15:14)
2. Spiral Era (08:42)
3. The Shrine (09:54)
4. Apex (07:57)

foobar2000 1.4.1 / Dynamic Range Meter 1.1.1
log date: 2021-06-18 11:49:07

––––––––––––––––––––––––––––––––––––––––
Analyzed: Jaga Jazzist / The Tower
––––––––––––––––––––––––––––––––––––––––

DR Peak RMS Duration Track
––––––––––––––––––––––––––––––––––––––––
DR7 -0.43 dB -10.20 dB 15:14 01-Tomita
DR7 -0.30 dB -8.78 dB 8:43 02-Spiral Era
DR8 -0.07 dB -10.00 dB 9:55 03-The Shrine
DR7 -0.32 dB -9.48 dB 7:58 04-Apex
––––––––––––––––––––––––––––––––––––––––

Number of tracks: 4
Official DR value: DR7

Samplerate: 44100 Hz
Channels: 2
Bits per sample: 24
Bitrate: 1612 kbps
Codec: FLAC
================================================================================


Thanks to the Original customer!