Peter Holsapple & Chris Stamey - Our Back Pages (2021) [Official Digital Download 24/88]

Posted By: delpotro
Peter Holsapple & Chris Stamey - Our Back Pages (2021) [Official Digital Download 24/88]

Peter Holsapple & Chris Stamey - Our Back Pages (2021)
FLAC (tracks) 24-bit/88,2 kHz | Front Cover & Digital Booklet | Time - 44:50 minutes | 858 MB
Folk Rock, Acoustic, Singer-Songwriter | Label: Omnivore Recordings, Official Digital Download

Peter and I started playing music together in grade school in Winston-Salem, North Carolina, in a blues trio called Soup, and by 1978 we found ourselves in New York playing in a new band, called the dB’s. After two records together, Stands For deciBels and Repercussion, we went our separate ways for a while—Peter continuing on with the dB’s, then playing keys and guitars on tours with R.E.M., and myself off to make some solo records and produce other artists.

In 1991, we joined forces again to record a duo project, Mavericks, full of new original songs based around our mutual affection for vocal harmony groups such as the Everly Brothers, the Byrds, and the Lovin’ Spoonful. During subsequent touring, we enjoyed playing acoustic versions of a number of our favorites from the dB’s songbook. When we regrouped in 2008 to record a second original collection, hERE & nOW, we took time to also lay down studio versions of some of the arrangements we’d evolved during those live shows, which are often quite different from the original electric presentations. It was a bit of a busman’s holiday, perhaps? We’re still proud of the electric versions of the songs, but a sturdy song should be able to handle a bit of reinvention from time to time, and it was fun to “get under the hood” and see what was there, even without the charm and power of Will Rigby’s explosive drums and Gene Holder’s nimble bass runs. We are always more concerned with making new music than with looking back, however, and so it’s been in the archives ever since. We’re very pleased that the time has finally come to share it with you. (Chris Stamey)

Tracklist:
1. Today Could Be the Day (03:32)
2. From a Window to a Screen (03:03)
3. Black and White (03:05)
4. Dynamite (02:44)
5. Molly Says (02:28)
6. Happenstance (04:38)
7. Big Brown Eyes (02:15)
8. She's Not Worried (03:21)
9. Picture Sleeve (03:39)
10. Depth of Field (05:08)
11. Nothing is Wrong (04:16)
12. Darby Hall (Bonus Track) (03:05)
13. In Spain (Bonus Track) (03:31)

foobar2000 1.4.1 / Dynamic Range Meter 1.1.1
log date: 2021-06-18 11:50:09

––––––––––––––––––––––––––––––––––––––––
Analyzed: Peter Holsapple & Chris Stamey / Our Back Pages
––––––––––––––––––––––––––––––––––––––––

DR Peak RMS Duration Track
––––––––––––––––––––––––––––––––––––––––
DR10 -0.50 dB -12.18 dB 3:33 01-Today Could Be the Day
DR8 -0.50 dB -10.53 dB 3:04 02-From a Window to a Screen
DR7 -1.27 dB -10.26 dB 3:06 03-Black and White
DR9 -0.71 dB -10.74 dB 2:44 04-Dynamite
DR8 -0.52 dB -10.07 dB 2:28 05-Molly Says
DR7 -0.50 dB -9.51 dB 4:38 06-Happenstance
DR7 -1.00 dB -9.80 dB 2:15 07-Big Brown Eyes
DR8 -0.50 dB -11.29 dB 3:22 08-She's Not Worried
DR8 -0.50 dB -10.76 dB 3:40 09-Picture Sleeve
DR7 -0.75 dB -9.63 dB 5:09 10-Depth of Field
DR7 -0.61 dB -9.49 dB 4:17 11-Nothing is Wrong
DR7 -0.50 dB -9.74 dB 3:05 12-Darby Hall (Bonus Track)
DR8 -0.50 dB -10.38 dB 3:31 13-In Spain (Bonus Track)
––––––––––––––––––––––––––––––––––––––––

Number of tracks: 13
Official DR value: DR8

Samplerate: 88200 Hz
Channels: 2
Bits per sample: 24
Bitrate: 2615 kbps
Codec: FLAC
================================================================================


Thanks to the Original customer!