Tags
Language
Tags

Portico Quartet - We Welcome Tomorrow (EP) (2020) [Official Digital Download 24/48]

Posted By: delpotro
Portico Quartet - We Welcome Tomorrow (EP) (2020) [Official Digital Download 24/48]

Portico Quartet - We Welcome Tomorrow (EP) (2020)
FLAC (tracks) 24-bit/48 kHz | Front Cover | Time - 13:24 minutes | 150 MB
Contemporary Jazz, Nu Jazz, Modern Creative | Label: Gondwana Records, Official Digital Download

The EP follows on from Memory Streams, their fifth studio album and second for Gondwana Records which was released in October 2019. Sonically it explores a similar world to the full-length album, but where Memory Streams focused on a punchier live sound, WWT explores modern classical and ambient textures.

We Welcome Tomorrow features, the duo Fran and Flora (Francesca Ter-Berg cello & Flora Curzon) on strings, but also builds looped saxophones, drums and synths parts into a rich tapestry of sound. Odd time signatures underpin a surprisingly emotional build that resolves in richly layered strings.

Mirage explores a different side of the band's writing. Moving away from their usual instrumentation and enlisting the beautiful string playing of 'Fran and flora' . It draws influence from the emotional, spiritual minimalism of composers such as Arvo Part and John Adams.

Winding Snake again takes influence from American minimalism but places it against strong, modern drum rhythms and organs. And its energy and instrumentation propel the music into trademark Portico Quartet territory.

Tracklist:
1. We Welcome Tomorrow (02:57)
2. Mirage (04:24)
3. Winding Snake (06:04)

foobar2000 1.4.1 / Dynamic Range Meter 1.1.1
log date: 2022-05-15 15:56:16

––––––––––––––––––––––––––––––––––––––––
Analyzed: Portico Quartet / We Welcome Tomorrow
––––––––––––––––––––––––––––––––––––––––

DR Peak RMS Duration Track
––––––––––––––––––––––––––––––––––––––––
DR9 -0.91 dB -13.37 dB 2:57 01-We Welcome Tomorrow
DR10 -2.90 dB -15.33 dB 4:24 02-Mirage
DR9 -0.40 dB -12.60 dB 6:04 03-Winding Snake
––––––––––––––––––––––––––––––––––––––––

Number of tracks: 3
Official DR value: DR9

Samplerate: 48000 Hz
Channels: 2
Bits per sample: 24
Bitrate: 1640 kbps
Codec: FLAC
================================================================================


Thanks to the Original customer!