Tags
Language
Tags

Rodrigo Amarante - Drama (2021) [Official Digital Download 24/96]

Posted By: delpotro
Rodrigo Amarante - Drama (2021) [Official Digital Download 24/96]

Rodrigo Amarante - Drama (2021)
FLAC (tracks) 24-bit/96 kHz | Front Cover | Time - 41:38 minutes | 784 MB
Psychedelic Folk, Folk Rock, Latin | Label: Polyvinyl Records, Official Digital Download

You may know Rodrigo Amarante already. You may have heard "Tuyo," his theme tune to the Netflix drama Narcos, or the Little Joy album, recorded with Fab Moretti and Binki Shapiro, you might have noted his name among the credits on songs by Gal Costa, Norah Jones and Gilberto Gil; or perhaps you saw him play live with Brazilian samba big band Orquestra Imperial, or with Rio rockers Los Hermanos; you really should have heard his debut album, Cavalo, released in 2014. You may think you know Rodrigo Amarante already, but Drama, his second solo album, is going to introduce a whole new level of confusion to the mix.

Drama is purposefully caricatural, cinematic; "As biased as memory". It flows as an arch, playfully deceiving, like a tale. The ominous opening number gives you a hint that things might not be what they appear, and clues are hiding in plain sight. "Projection, attachment, deception: that is Drama." The sunny upbeat start of "Maré", with a nearly childish opening melody, echoes something less naïf: "The tide will fetch what the ebb brings". The beat helps you move past. "Tango" sounds like falling in love on the dance floor, warm and tropical, it celebrates companionship, while perhaps pleading for it, yearning. "Tara," meanwhile, feels like something Astrud Gilberto might have sung at the height of bossa nova’s global popularity, with the twist of the big-band-era muted horns on the chorus, nearly self-deprecating, as if mocking such idealized infatuation.

Tracklist:
1. Drama (01:45)
2. Maré (03:33)
3. Tango (03:42)
4. Tara (04:13)
5. Tanto (03:58)
6. I Can't Wait (03:37)
7. Tao (04:32)
8. Sky Beneath (04:01)
9. Eu Com Você (03:32)
10. Um Milhão (04:20)
11. The End (04:18)

foobar2000 1.4.1 / Dynamic Range Meter 1.1.1
log date: 2021-07-18 12:58:19

––––––––––––––––––––––––––––––––––––––––
Analyzed: Rodrigo Amarante / Drama
––––––––––––––––––––––––––––––––––––––––

DR Peak RMS Duration Track
––––––––––––––––––––––––––––––––––––––––
DR10 -0.53 dB -12.15 dB 1:46 01-Drama
DR6 -0.30 dB -8.32 dB 3:34 02-Maré
DR7 -0.30 dB -9.19 dB 3:42 03-Tango
DR9 -0.34 dB -11.39 dB 4:13 04-Tara
DR7 -0.30 dB -8.70 dB 3:59 05-Tanto
DR8 -0.30 dB -10.40 dB 3:38 06-I Can't Wait
DR6 -0.30 dB -9.43 dB 4:32 07-Tao
DR7 -0.30 dB -10.56 dB 4:02 08-Sky Beneath
DR5 -0.30 dB -7.72 dB 3:33 09-Eu Com Você
DR7 -0.30 dB -9.87 dB 4:21 10-Um Milhão
DR7 -0.30 dB -11.59 dB 4:19 11-The End
––––––––––––––––––––––––––––––––––––––––

Number of tracks: 11
Official DR value: DR7

Samplerate: 96000 Hz
Channels: 2
Bits per sample: 24
Bitrate: 2529 kbps
Codec: FLAC
================================================================================


Thanks to the Original customer!